<?xml version="1.0" standalone="no"?>
<!DOCTYPE svg PUBLIC "-//W3C//DTD SVG 1.1//EN" "http://www.w3.org/Graphics/SVG/1.1/DTD/svg11.dtd" >
<svg>
<metadata>
Created by FontForge 20090622 at Mon Jul  9 13:58:51 2018
 By deploy user
Core Sans D 67 Cn Heavy
</metadata>
<defs>
<font id="CoreSansD67CnHeavy" horiz-adv-x="284" >
  <font-face 
    font-family="Core Sans D 67 Cn Heavy"
    font-weight="400"
    font-stretch="normal"
    units-per-em="1000"
    panose-1="2 11 9 6 3 3 2 2 2 4"
    ascent="800"
    descent="-200"
    x-height="500"
    cap-height="700"
    bbox="-384 -238 878 958"
    underline-thickness="24"
    underline-position="-183"
    unicode-range="U+0008-U+FB04"
  />
<missing-glyph horiz-adv-x="500" 
d="M430 0h-360v750h360v-750zM145 65h210v620h-210v-620z" />
    <glyph glyph-name="f_f" unicode="ff" horiz-adv-x="508" 
d="M186 545v-45h114v51q0 86 31 123.5t104 37.5h67v-109h-38q-24 0 -33 -12t-9 -46v-45h80v-109h-80v-391h-122v391h-115v-391h-122v391h-49v109h49v51q0 86 31.5 123.5t103.5 37.5q44 0 85 -12l-13 -103q-24 6 -42 6q-23 0 -32.5 -12t-9.5 -46z" />
    <glyph glyph-name="f_i" unicode="fi" horiz-adv-x="465" 
d="M300 0v391h-115v-391h-122v391h-49v109h49v51q0 86 31 123.5t104 37.5h67v-109h-38q-24 0 -33 -12t-9 -46v-45h237v-500h-122zM300 580v132h122v-132h-122z" />
    <glyph glyph-name="f_l" unicode="fl" horiz-adv-x="501" 
d="M301 691v21h122v-545q0 -34 8.5 -46t32.5 -12h28v-109h-58q-71 0 -102 37t-31 123v430q-29 13 -64 13q-29 0 -40.5 -12.5t-11.5 -45.5v-45h80v-109h-80v-391h-122v391h-49v109h49v51q0 90 31.5 125.5t108.5 35.5q50 0 98 -21z" />
    <glyph glyph-name="f_f_i" unicode="ffi" horiz-adv-x="702" 
d="M537 0v391h-115v-391h-122v391h-115v-391h-122v391h-49v109h49v51q0 86 31.5 123.5t103.5 37.5q44 0 85 -12l-13 -103q-24 6 -42 6q-23 0 -32.5 -12t-9.5 -46v-45h114v51q0 86 31 123.5t104 37.5h67v-109h-38q-24 0 -33 -12t-9 -46v-45h237v-500h-122zM537 580v132h122
v-132h-122z" />
    <glyph glyph-name="f_f_l" unicode="ffl" horiz-adv-x="738" 
d="M538 691v21h122v-545q0 -34 8.5 -46t32.5 -12h28v-109h-58q-71 0 -102 37t-31 123v430q-29 13 -64 13q-29 0 -40.5 -12.5t-11.5 -45.5v-45h80v-109h-80v-391h-122v391h-115v-391h-122v391h-49v109h49v51q0 86 31.5 123.5t103.5 37.5q44 0 85 -12l-13 -103q-24 6 -42 6
q-23 0 -32.5 -12t-9.5 -46v-45h114v51q0 90 31.5 125.5t108.5 35.5q50 0 98 -21z" />
    <glyph glyph-name=".notdef" horiz-adv-x="500" 
d="M430 0h-360v750h360v-750zM145 65h210v620h-210v-620z" />
    <glyph glyph-name=".null" horiz-adv-x="0" 
 />
    <glyph glyph-name=".null" horiz-adv-x="0" 
 />
    <glyph glyph-name=".null" horiz-adv-x="0" 
 />
    <glyph glyph-name="nonmarkingreturn" horiz-adv-x="333" 
 />
    <glyph glyph-name="CR" unicode="&#x9;" horiz-adv-x="116" 
 />
    <glyph glyph-name="CR" unicode="&#xd;" horiz-adv-x="116" 
 />
    <glyph glyph-name="space" unicode=" " horiz-adv-x="182" 
 />
    <glyph glyph-name="exclam" unicode="!" horiz-adv-x="245" 
d="M74 225l-18 368v107h133v-107l-18 -368h-97zM185 130v-130h-125v130h125z" />
    <glyph glyph-name="quotedbl" unicode="&#x22;" horiz-adv-x="359" 
d="M56 476l-13 224h118l-13 -224h-92zM211 476l-13 224h118l-13 -224h-92z" />
    <glyph glyph-name="numbersign" unicode="#" horiz-adv-x="521" 
d="M239 0l26 163h-68l-26 -163h-120l26 163h-60v115h78l23 144h-76v115h94l26 163h120l-26 -163h68l26 163h120l-26 -163h59v-115h-77l-23 -144h75v-115h-93l-26 -163h-120zM238 422l-23 -144h68l23 144h-68z" />
    <glyph glyph-name="dollar" unicode="$" horiz-adv-x="441" 
d="M150 704v83h120v-81q129 -27 129 -189v-20l-134 -5v24q0 41 -12 59t-38 18t-38 -18t-12 -59v-12q0 -38 14 -52.5t61 -34.5l26 -11q83 -36 115.5 -77t32.5 -121v-19q0 -81 -34.5 -131t-99.5 -64v-81h-120v83q-128 32 -128 193v13l134 5v-21q0 -80 57 -80t57 80v17
q0 33 -14 51.5t-50 32.5l-38 15q-84 33 -115.5 73t-31.5 124v18q0 156 119 187z" />
    <glyph glyph-name="percent" unicode="%" horiz-adv-x="647" 
d="M174 472v103q0 48 -23 48t-23 -48v-103q0 -48 23 -48t23 48zM268 577v-107q0 -63 -29.5 -99t-87.5 -36t-87.5 36t-29.5 99v107q0 63 29.5 99t87.5 36t87.5 -36t29.5 -99zM473 228v-103q0 -48 23 -48t23 48v103q0 48 -23 48t-23 -48zM475 700l-214 -700h-89l214 700h89z
M379 123v107q0 63 29.5 99t87.5 36t87.5 -36t29.5 -99v-107q0 -63 -29.5 -99t-87.5 -36t-87.5 36t-29.5 99z" />
    <glyph glyph-name="ampersand" unicode="&#x26;" horiz-adv-x="501" 
d="M264 365l68 -109q8 48 10 104l107 -10q-3 -133 -37 -220l83 -130h-120l-24 37q-52 -49 -132 -49q-86 0 -135 51.5t-49 140.5v12q0 115 91 196l-2 4q-32 51 -44 83.5t-12 73.5v15q0 67 38 107t102 40t101.5 -40.5t37.5 -107.5v-12q0 -63 -19 -102t-64 -84zM225 98
q39 0 64 35l-100 156q-35 -38 -35 -102v-8q0 -38 19 -59.5t52 -21.5zM175 560v-14q0 -38 28 -85l3 -5q34 31 34 92v12q0 22 -10 35t-23 13q-32 0 -32 -48z" />
    <glyph glyph-name="quotesingle" unicode="'" horiz-adv-x="204" 
d="M56 476l-13 224h118l-13 -224h-92z" />
    <glyph glyph-name="parenleft" unicode="(" horiz-adv-x="270" 
d="M162 508v-325q0 -129 85 -169l-39 -122q-172 65 -172 276v355q0 211 172 276l39 -122q-85 -40 -85 -169z" />
    <glyph glyph-name="parenright" unicode=")" horiz-adv-x="270" 
d="M108 183v325q0 129 -85 169l39 122q172 -65 172 -276v-355q0 -211 -172 -276l-39 122q85 40 85 169z" />
    <glyph glyph-name="asterisk" unicode="*" horiz-adv-x="407" 
d="M120 324l-105 46l54 93l92 -68l-13 114h111l-13 -114l92 68l54 -93l-105 -46l105 -46l-54 -93l-92 68l13 -114h-111l13 114l-92 -68l-54 93z" />
    <glyph glyph-name="plus" unicode="+" horiz-adv-x="423" 
d="M30 273v102h122v135h119v-135h122v-102h-122v-135h-119v135h-122z" />
    <glyph glyph-name="comma" unicode="," horiz-adv-x="202" 
d="M96 0h-61v138h132v-146q0 -119 -132 -126v60q32 2 46.5 17t14.5 47v10z" />
    <glyph glyph-name="hyphen" unicode="-" horiz-adv-x="314" 
d="M30 272v104h254v-104h-254z" />
    <glyph glyph-name="period" unicode="." horiz-adv-x="202" 
d="M167 138v-138h-132v138h132z" />
    <glyph glyph-name="slash" unicode="/" horiz-adv-x="348" 
d="M354 783l-234 -876h-126l234 876h126z" />
    <glyph glyph-name="zero" unicode="0" horiz-adv-x="404" 
d="M28 192v316q0 98 45 151t129 53t129 -53t45 -151v-316q0 -98 -45 -151t-129 -53t-129 53t-45 151zM157 501v-302q0 -57 10.5 -78t34.5 -21t34.5 21t10.5 78v302q0 57 -10.5 78t-34.5 21t-34.5 -21t-10.5 -78z" />
    <glyph glyph-name="one" unicode="1" horiz-adv-x="404" 
d="M371 0h-313v111h93v441l-93 -44v124l121 68h100v-589h92v-111z" />
    <glyph glyph-name="two" unicode="2" horiz-adv-x="404" 
d="M202 601q-21 0 -31 -18.5t-10 -63.5v-49l-129 5v41q0 196 170 196q169 0 169 -196v-23q0 -78 -45 -157l-132 -225h177v-111h-340v86l185 315q26 42 26 92v26q0 82 -40 82z" />
    <glyph glyph-name="three" unicode="3" horiz-adv-x="404" 
d="M375 257v-68q0 -97 -45 -149t-129 -52t-129 52.5t-45 150.5v34l129 5v-32q0 -57 10.5 -78t34.5 -21t34.5 21t10.5 78v47q0 55 -11 76.5t-35 21.5q-23 0 -40 -15l-65 61l118 199h-169v112h313v-100l-101 -164q57 -4 88 -51.5t31 -127.5z" />
    <glyph glyph-name="four" unicode="4" horiz-adv-x="404" 
d="M123 244h88v230zM390 244v-112h-53v-132h-126v132h-196v97l188 471h134v-456h53z" />
    <glyph glyph-name="five" unicode="5" horiz-adv-x="404" 
d="M378 254v-65q0 -97 -45 -149t-129 -52t-129 52.5t-45 150.5v38l129 5v-36q0 -56 10.5 -77t34.5 -21t34.5 21t10.5 77v58q0 67 -8.5 89t-31.5 22q-28 0 -33 -40h-125v373h301v-112h-172v-138q26 29 67 29q64 0 97.5 -52.5t33.5 -172.5z" />
    <glyph glyph-name="six" unicode="6" horiz-adv-x="404" 
d="M202 -12q-83 0 -129 52t-46 156v37q0 81 29 165l105 302h135l-94 -261q12 3 20 3q76 0 115.5 -57.5t39.5 -166.5v-24q0 -102 -46 -154t-129 -52zM156 233v-37q0 -54 10 -75.5t36 -21.5t36 21.5t10 75.5v37q0 54 -10 75.5t-36 21.5t-36 -21.5t-10 -75.5z" />
    <glyph glyph-name="seven" unicode="7" horiz-adv-x="404" 
d="M32 589v111h338v-95l-160 -605h-131l156 589h-203z" />
    <glyph glyph-name="eight" unicode="8" horiz-adv-x="404" 
d="M202 -12q-178 0 -178 212v28q0 121 72 157q-25 14 -40 47.5t-15 76.5v27q0 86 42.5 131t118.5 45t118.5 -45t42.5 -131v-27q0 -43 -15 -76.5t-40 -47.5q72 -36 72 -157v-28q0 -212 -178 -212zM202 604q-42 0 -42 -72v-27q0 -72 42 -72t42 72v27q0 72 -42 72zM202 327
q-28 0 -41 -23t-13 -80v-22q0 -57 13 -80t41 -23t41 23t13 80v22q0 57 -13 80t-41 23z" />
    <glyph glyph-name="nine" unicode="9" horiz-adv-x="404" 
d="M202 712q83 0 129 -52t46 -156v-37q0 -81 -29 -165l-105 -302h-135l94 261q-12 -3 -20 -3q-76 0 -115.5 57.5t-39.5 166.5v24q0 102 46 154t129 52zM248 467v37q0 54 -10 75.5t-36 21.5t-36 -21.5t-10 -75.5v-37q0 -54 10 -75.5t36 -21.5t36 21.5t10 75.5z" />
    <glyph glyph-name="colon" unicode=":" horiz-adv-x="202" 
d="M167 138v-138h-132v138h132zM167 549v-138h-132v138h132z" />
    <glyph glyph-name="semicolon" unicode=";" horiz-adv-x="202" 
d="M167 549v-138h-132v138h132zM96 0h-61v138h132v-146q0 -119 -132 -126v60q32 2 46.5 17t14.5 47v10z" />
    <glyph glyph-name="less" unicode="&#x3c;" horiz-adv-x="423" 
d="M383 118l-343 150v106l343 150v-112l-224 -91l224 -91v-112z" />
    <glyph glyph-name="equal" unicode="=" horiz-adv-x="423" 
d="M30 365v102h363v-102h-363zM30 185v102h363v-102h-363z" />
    <glyph glyph-name="greater" unicode="&#x3e;" horiz-adv-x="423" 
d="M383 268l-343 -150v112l224 91l-224 91v112l343 -150v-106z" />
    <glyph glyph-name="question" unicode="?" horiz-adv-x="393" 
d="M258 130v-130h-124v130h124zM27 501v25q0 86 43.5 136t123.5 50q82 0 124 -51t42 -140v-21q0 -57 -17 -94t-57 -90q-17 -22 -22.5 -40.5t-5.5 -51.5v-30h-124v34q0 64 13 101t52 77q37 38 37 92v23q0 66 -42 66q-43 0 -43 -66v-25z" />
    <glyph glyph-name="at" unicode="@" horiz-adv-x="555" 
d="M513 455v-255q0 -192 -160 -192q-76 0 -117 49.5t-41 146.5v74q0 193 141 193q49 0 74 -32q-1 170 -133 170q-133 0 -133 -169v-358q0 -168 133 -168q48 0 88 24l39 -88q-51 -39 -127 -39q-111 0 -173 66t-62 190v388q0 124 62 190.5t173 66.5q112 0 174 -66t62 -191z
M411 204v132q-17 32 -51 32q-28 0 -41.5 -21t-13.5 -72v-71q0 -93 53 -93q27 0 40 21t13 72z" />
    <glyph glyph-name="A" unicode="A" horiz-adv-x="469" 
d="M329 0l-24 125h-141l-24 -125h-138l163 700h139l163 -700h-138zM234 490l-47 -246h95z" />
    <glyph glyph-name="B" unicode="B" horiz-adv-x="448" 
d="M230 0h-186v700h182q88 0 136 -48t48 -147q0 -51 -19 -88t-51 -52q84 -39 84 -158q0 -102 -50 -154.5t-144 -52.5zM209 584h-31v-168h31q67 0 67 84t-67 84zM219 302h-41v-186h41q71 0 71 93t-71 93z" />
    <glyph glyph-name="C" unicode="C" horiz-adv-x="459" 
d="M435 239v-25q0 -110 -54 -168t-147 -58t-147 58t-54 168v272q0 110 54 168t147 58t147 -58t54 -168v-25l-134 -5v19q0 63 -16.5 90.5t-50.5 27.5t-50.5 -27.5t-16.5 -90.5v-250q0 -63 16.5 -90.5t50.5 -27.5t50.5 27.5t16.5 90.5v19z" />
    <glyph glyph-name="D" unicode="D" horiz-adv-x="459" 
d="M44 0v700h181q93 0 147 -58t54 -168v-248q0 -110 -54 -168t-147 -58h-181zM292 237v226q0 63 -16.5 90.5t-50.5 27.5h-47v-462h47q34 0 50.5 27.5t16.5 90.5z" />
    <glyph glyph-name="E" unicode="E" horiz-adv-x="414" 
d="M44 0v700h344v-119h-210v-162h180v-119h-180v-181h210v-119h-344z" />
    <glyph glyph-name="F" unicode="F" horiz-adv-x="401" 
d="M44 0v700h344v-119h-210v-172h187v-119h-187v-290h-134z" />
    <glyph glyph-name="G" unicode="G" horiz-adv-x="463" 
d="M232 262v112h203v-160q0 -110 -54 -168t-147 -58t-147 58t-54 168v272q0 110 54 168t147 58t147 -58t54 -168v-25l-134 -5v19q0 63 -16.5 90.5t-50.5 27.5t-50.5 -27.5t-16.5 -90.5v-250q0 -63 16.5 -90.5t50.5 -27.5t50.5 27.5t16.5 90.5v37h-69z" />
    <glyph glyph-name="H" unicode="H" horiz-adv-x="474" 
d="M295 0v300h-116v-300h-135v700h135v-281h116v281h135v-700h-135z" />
    <glyph glyph-name="I" unicode="I" horiz-adv-x="222" 
d="M178 700v-700h-134v700h134z" />
    <glyph glyph-name="J" unicode="J" horiz-adv-x="421" 
d="M144 214v-16q0 -92 51 -92t51 92v502h135v-509q0 -96 -49 -149.5t-137 -53.5t-137 53.5t-49 149.5v18z" />
    <glyph glyph-name="K" unicode="K" horiz-adv-x="464" 
d="M418 700v-68q0 -84 -19 -142t-68 -109l133 -381h-141l-94 287l-51 -47v-240h-134v700h134v-293l35 33q41 40 56 81.5t15 112.5v66h134z" />
    <glyph glyph-name="L" unicode="L" horiz-adv-x="399" 
d="M44 0v700h134v-581h214v-119h-348z" />
    <glyph glyph-name="M" unicode="M" horiz-adv-x="576" 
d="M246 172l-72 203v-375h-130v700h111l133 -367l133 367h111v-700h-130v375l-72 -203h-84z" />
    <glyph glyph-name="N" unicode="N" horiz-adv-x="488" 
d="M328 0l-154 406v-406h-130v700h116l154 -406v406h130v-700h-116z" />
    <glyph glyph-name="O" unicode="O" horiz-adv-x="468" 
d="M301 225v250q0 63 -16.5 90.5t-50.5 27.5t-50.5 -27.5t-16.5 -90.5v-250q0 -63 16.5 -90.5t50.5 -27.5t50.5 27.5t16.5 90.5zM435 486v-272q0 -110 -54 -168t-147 -58t-147 58t-54 168v272q0 110 54 168t147 58t147 -58t54 -168z" />
    <glyph glyph-name="P" unicode="P" horiz-adv-x="450" 
d="M227 241h-49v-241h-134v700h183q86 0 141.5 -57t55.5 -173q0 -115 -55.5 -172t-141.5 -57zM290 470q0 111 -82 111h-30v-221h30q82 0 82 110z" />
    <glyph glyph-name="Q" unicode="Q" horiz-adv-x="468" 
d="M393 -46l-56 58q-43 -24 -103 -24q-93 0 -147 58t-54 168v272q0 110 54 168t147 58t147 -58t54 -168v-272q0 -85 -34 -141l56 -57zM301 225v250q0 63 -16.5 90.5t-50.5 27.5t-50.5 -27.5t-16.5 -90.5v-250q0 -63 16.5 -90.5t50.5 -27.5h11l-44 46l64 62l33 -35q3 20 3 45
z" />
    <glyph glyph-name="R" unicode="R" horiz-adv-x="456" 
d="M343 290l103 -290h-141l-81 258h-46v-258h-134v700h183q86 0 141.5 -54.5t55.5 -166.5q0 -134 -81 -189zM290 479q0 102 -82 102h-30v-205h30q82 0 82 103z" />
    <glyph glyph-name="S" unicode="S" horiz-adv-x="441" 
d="M32 189v13l134 5v-21q0 -80 57 -80t57 80v17q0 33 -14 51.5t-50 32.5l-38 15q-84 33 -115.5 73t-31.5 124v18q0 195 184 195t184 -195v-20l-134 -5v24q0 41 -12 59t-38 18t-38 -18t-12 -59v-12q0 -38 14 -52.5t61 -34.5l26 -11q83 -36 115.5 -77t32.5 -121v-19
q0 -97 -49.5 -149t-141.5 -52t-141.5 52t-49.5 149z" />
    <glyph glyph-name="T" unicode="T" horiz-adv-x="402" 
d="M6 581v119h390v-119h-128v-581h-134v581h-128z" />
    <glyph glyph-name="U" unicode="U" horiz-adv-x="482" 
d="M241 -12q-95 0 -149 58t-54 168v486h134v-475q0 -62 16.5 -90.5t52.5 -28.5t52.5 28.5t16.5 90.5v475h134v-486q0 -110 -54 -168t-149 -58z" />
    <glyph glyph-name="V" unicode="V" horiz-adv-x="457" 
d="M229 238l89 462h137l-157 -700h-139l-157 700h137z" />
    <glyph glyph-name="W" unicode="W" horiz-adv-x="700" 
d="M487 261l72 439h134l-139 -700h-128l-76 450l-76 -450h-128l-139 700h134l72 -439l73 439h128z" />
    <glyph glyph-name="X" unicode="X" horiz-adv-x="464" 
d="M156 700l76 -224l76 224h139l-121 -339l131 -361h-139l-86 247l-86 -247h-139l131 361l-121 339h139z" />
    <glyph glyph-name="Y" unicode="Y" horiz-adv-x="450" 
d="M158 0v318l-152 382h139l80 -237l80 237h139l-152 -382v-318h-134z" />
    <glyph glyph-name="Z" unicode="Z" horiz-adv-x="401" 
d="M23 91l193 490h-186v119h348v-91l-193 -490h193v-119h-355v91z" />
    <glyph glyph-name="bracketleft" unicode="[" horiz-adv-x="268" 
d="M47 -93v876h203v-116h-76v-644h76v-116h-203z" />
    <glyph glyph-name="backslash" unicode="\" horiz-adv-x="348" 
d="M228 -93l-234 876h126l234 -876h-126z" />
    <glyph glyph-name="bracketright" unicode="]" horiz-adv-x="268" 
d="M221 783v-876h-203v116h76v644h-76v116h203z" />
    <glyph glyph-name="asciicircum" unicode="^" horiz-adv-x="374" 
d="M8 475l125 225h108l125 -225h-120l-59 111l-59 -111h-120z" />
    <glyph glyph-name="underscore" unicode="_" horiz-adv-x="350" 
d="M0 -172v72h350v-72h-350z" />
    <glyph glyph-name="grave" unicode="`" horiz-adv-x="288" 
d="M145 569l-77 161h110l52 -161h-85z" />
    <glyph glyph-name="a" unicode="a" horiz-adv-x="397" 
d="M188 89q33 0 49 45v69h-45q-47 0 -47 -56v-12q0 -46 43 -46zM43 351v6q0 72 41.5 113.5t116.5 41.5q77 0 117.5 -42t40.5 -118v-352h-122v38q-27 -50 -90 -50q-53 0 -87 37.5t-34 106.5v15q0 72 42 111.5t119 39.5h50v51q0 54 -36 54q-35 0 -35 -58z" />
    <glyph glyph-name="b" unicode="b" horiz-adv-x="410" 
d="M161 365v-230q14 -38 48 -38q49 0 49 78v150q0 78 -49 78q-34 0 -48 -38zM380 334v-169q0 -91 -36.5 -134t-95.5 -43q-63 0 -87 49v-37h-122v712h122v-249q24 49 87 49q59 0 95.5 -43.5t36.5 -134.5z" />
    <glyph glyph-name="c" unicode="c" horiz-adv-x="393" 
d="M371 181v-5q0 -89 -46.5 -138.5t-124.5 -49.5t-124.5 49.5t-46.5 138.5v148q0 89 46.5 138.5t124.5 49.5t124.5 -49.5t46.5 -138.5v-5l-122 -5v12q0 77 -49 77t-49 -77v-152q0 -77 49 -77t49 77v12z" />
    <glyph glyph-name="d" unicode="d" horiz-adv-x="410" 
d="M249 135v230q-14 38 -48 38q-49 0 -49 -78v-150q0 -78 49 -78q34 0 48 38zM30 165v169q0 91 36.5 134.5t95.5 43.5q63 0 87 -49v249h122v-712h-122v37q-24 -49 -87 -49q-59 0 -95.5 43t-36.5 134z" />
    <glyph glyph-name="e" unicode="e" horiz-adv-x="400" 
d="M371 324v-118h-220v-32q0 -77 49 -77q41 0 48 53l121 -6q-8 -75 -53 -115.5t-116 -40.5q-78 0 -124.5 49.5t-46.5 138.5v148q0 89 46.5 138.5t124.5 49.5t124.5 -49.5t46.5 -138.5zM151 326v-22h98v22q0 77 -49 77t-49 -77z" />
    <glyph glyph-name="f" unicode="f" horiz-adv-x="271" 
d="M14 391v109h49v51q0 86 31 123.5t104 37.5h67v-109h-38q-24 0 -33 -12t-9 -46v-45h80v-109h-80v-391h-122v391h-49z" />
    <glyph glyph-name="g" unicode="g" horiz-adv-x="410" 
d="M30 165v169q0 91 36.5 134.5t95.5 43.5q63 0 87 -49v37h122v-559q0 -84 -45.5 -128.5t-123.5 -44.5q-75 0 -119.5 41t-49.5 119l122 6q5 -58 47 -58q47 0 47 77v84q-24 -49 -87 -49q-59 0 -95.5 43t-36.5 134zM249 135v230q-14 38 -48 38q-49 0 -49 -78v-150
q0 -78 49 -78q34 0 48 38z" />
    <glyph glyph-name="h" unicode="h" horiz-adv-x="417" 
d="M161 355v-355h-122v712h122v-256q27 56 93 56q62 0 94 -44t32 -125v-343h-122v336q0 67 -46 67q-40 0 -51 -48z" />
    <glyph glyph-name="i" unicode="i" horiz-adv-x="208" 
d="M43 0v500h122v-500h-122zM43 580v132h122v-132h-122z" />
    <glyph glyph-name="j" unicode="j" horiz-adv-x="208" 
d="M43 580v132h122v-132h-122zM165 500v-540q0 -93 -36.5 -132.5t-116.5 -39.5h-43v109h30q26 0 35 14t9 50v539h122z" />
    <glyph glyph-name="k" unicode="k" horiz-adv-x="391" 
d="M357 500v-23q0 -74 -14 -117.5t-54 -82.5l101 -277h-126l-65 194l-38 -34v-160h-122v712h122v-401l25 24q30 29 39.5 56t9.5 77v32h122z" />
    <glyph glyph-name="l" unicode="l" horiz-adv-x="241" 
d="M41 160v552h122v-545q0 -34 8.5 -46t32.5 -12h28v-109h-58q-71 0 -102 37t-31 123z" />
    <glyph glyph-name="m" unicode="m" horiz-adv-x="637" 
d="M161 355v-355h-122v500h122v-44q27 56 93 56q71 0 104 -61q37 61 108 61q134 0 134 -169v-343h-122v336q0 67 -46 67q-39 0 -53 -43q1 -6 1 -17v-343h-122v336q0 67 -46 67q-40 0 -51 -48z" />
    <glyph glyph-name="n" unicode="n" horiz-adv-x="417" 
d="M161 355v-355h-122v500h122v-44q27 56 93 56q62 0 94 -44t32 -125v-343h-122v336q0 67 -46 67q-40 0 -51 -48z" />
    <glyph glyph-name="o" unicode="o" horiz-adv-x="400" 
d="M151 326v-152q0 -77 49 -77t49 77v152q0 77 -49 77t-49 -77zM29 176v148q0 89 46.5 138.5t124.5 49.5t124.5 -49.5t46.5 -138.5v-148q0 -89 -46.5 -138.5t-124.5 -49.5t-124.5 49.5t-46.5 138.5z" />
    <glyph glyph-name="p" unicode="p" horiz-adv-x="410" 
d="M162 365v-230q14 -38 48 -38q49 0 49 78v150q0 78 -49 78q-34 0 -48 -38zM381 335v-169q0 -91 -36.5 -134.5t-95.5 -43.5q-63 0 -87 49v-255h-122v718h122v-37q24 49 87 49q59 0 95.5 -43t36.5 -134z" />
    <glyph glyph-name="q" unicode="q" horiz-adv-x="410" 
d="M248 135v230q-14 38 -48 38q-49 0 -49 -78v-150q0 -78 49 -78q34 0 48 38zM29 166v169q0 91 36.5 134t95.5 43q63 0 87 -49v37h122v-718h-122v255q-24 -49 -87 -49q-59 0 -95.5 43.5t-36.5 134.5z" />
    <glyph glyph-name="r" unicode="r" horiz-adv-x="300" 
d="M39 0v500h123v-62q27 71 97 71q21 0 35 -6v-118q-18 7 -41 7q-66 0 -91 -65v-327h-123z" />
    <glyph glyph-name="s" unicode="s" horiz-adv-x="370" 
d="M153 152v-15q0 -40 34 -40t34 40v5q0 21 -11.5 32.5t-43.5 23.5l-24 9q-62 24 -87.5 57.5t-25.5 97.5v13q0 60 39 98.5t112 38.5t112 -38.5t39 -98.5v-18l-122 -4v16q0 34 -29 34t-29 -34v-4q0 -24 14.5 -34.5t64.5 -30.5l26 -10q87 -33 87 -140v-18q0 -67 -42 -105.5
t-114 -38.5t-114 38.5t-42 105.5v15z" />
    <glyph glyph-name="t" unicode="t" 
d="M9 391v109h48v142h122v-142h86v-109h-86v-224q0 -35 8.5 -46.5t32.5 -11.5h48v-109h-78q-71 0 -102 37t-31 123v231h-48z" />
    <glyph glyph-name="u" unicode="u" horiz-adv-x="417" 
d="M255 145v355h122v-500h-122v44q-27 -56 -93 -56q-62 0 -94 44t-32 125v343h122v-336q0 -67 46 -67q40 0 51 48z" />
    <glyph glyph-name="v" unicode="v" horiz-adv-x="384" 
d="M255 0h-126l-127 500h125l65 -306l65 306h125z" />
    <glyph glyph-name="w" unicode="w" horiz-adv-x="598" 
d="M185 209l60 291h108l60 -291l55 291h127l-117 -500h-115l-64 308l-64 -308h-115l-117 500h127z" />
    <glyph glyph-name="x" unicode="x" horiz-adv-x="368" 
d="M233 0l-49 158l-49 -158h-131l98 255l-92 245h129l45 -149l45 149h129l-92 -245l98 -255h-131z" />
    <glyph glyph-name="y" unicode="y" horiz-adv-x="386" 
d="M120 -52l17 66l-134 486h125l66 -283l62 283h125l-142 -559q-22 -88 -54.5 -120t-98.5 -32h-50v109h40q17 0 27 11t17 39z" />
    <glyph glyph-name="z" unicode="z" horiz-adv-x="357" 
d="M330 500v-85l-156 -307h163v-108h-317v85l155 307h-147v108h302z" />
    <glyph glyph-name="braceleft" unicode="{" horiz-adv-x="274" 
d="M20 401h6q51 0 51 48v182q0 85 38 118.5t127 33.5h22v-113h-19q-42 0 -42 -52v-164q0 -90 -74 -109q74 -19 74 -109v-164q0 -52 42 -52h19v-113h-22q-89 0 -127 33.5t-38 118.5v182q0 48 -51 48h-6v112z" />
    <glyph glyph-name="bar" unicode="|" horiz-adv-x="251" 
d="M60 -93v876h131v-876h-131z" />
    <glyph glyph-name="braceright" unicode="}" horiz-adv-x="274" 
d="M248 401h6v-112h-6q-51 0 -51 -48v-182q0 -85 -38 -118.5t-127 -33.5h-22v113h19q42 0 42 52v164q0 90 74 109q-74 19 -74 109v164q0 52 -42 52h-19v113h22q89 0 127 -33.5t38 -118.5v-182q0 -48 51 -48z" />
    <glyph glyph-name="asciitilde" unicode="~" horiz-adv-x="423" 
d="M268 344q27 0 28 45l102 -4q-2 -139 -115 -139q-35 0 -74 24.5t-54 24.5q-27 0 -28 -45l-102 4q2 139 115 139q35 0 74 -24.5t54 -24.5z" />
    <glyph glyph-name="uni00A0" unicode="&#xa0;" horiz-adv-x="182" 
 />
    <glyph glyph-name="exclamdown" unicode="&#xa1;" horiz-adv-x="245" 
d="M56 -93l18 368h97l18 -368v-107h-133v107zM185 500v-130h-125v130h125z" />
    <glyph glyph-name="cent" unicode="&#xa2;" horiz-adv-x="393" 
d="M141 503v86h117v-85q53 -17 83 -63t30 -117v-5l-122 -5v12q0 77 -49 77t-49 -77v-152q0 -77 49 -77t49 77v12l122 -5v-5q0 -71 -30.5 -117.5t-83.5 -62.5v-83h-116v84q-53 16 -82.5 62t-29.5 117v148q0 70 29.5 116.5t82.5 62.5z" />
    <glyph glyph-name="sterling" unicode="&#xa3;" horiz-adv-x="446" 
d="M419 517v-27l-134 -5v40q0 68 -40 68t-40 -67v-153h109v-87h-109v-57q0 -74 -26 -110h240v-119h-388v96q40 54 40 125v65h-49v87h49v144q0 89 43.5 142t130.5 53t130.5 -53t43.5 -142z" />
    <glyph glyph-name="currency" unicode="&#xa4;" horiz-adv-x="508" 
d="M432 324q0 -51 -26 -92l70 -72l-65 -65l-73 73q-40 -20 -84 -20t-84 20l-73 -73l-65 65l70 72q-26 41 -26 92t26 92l-70 72l65 65l73 -73q40 20 84 20t84 -20l73 73l65 -65l-70 -72q26 -41 26 -92zM175 324q0 -37 22 -60.5t57 -23.5t57 23.5t22 60.5t-22 60.5t-57 23.5
t-57 -23.5t-22 -60.5z" />
    <glyph glyph-name="yen" unicode="&#xa5;" horiz-adv-x="450" 
d="M55 386h76l-125 314h139l80 -237l80 237h139l-125 -314h77v-68h-104v-50h104v-68h-104v-200h-134v200h-103v68h103v50h-103v68z" />
    <glyph glyph-name="brokenbar" unicode="&#xa6;" horiz-adv-x="253" 
d="M60 395v388h133v-388h-133zM60 -93v388h133v-388h-133z" />
    <glyph glyph-name="section" unicode="&#xa7;" horiz-adv-x="378" 
d="M350 314v-88q0 -52 -46 -79q38 -38 38 -115v-45q0 -60 -39 -98.5t-112 -38.5t-112 38.5t-39 98.5v18l122 4v-16q0 -34 29 -34t29 34v40q0 24 -14.5 34.5t-64.5 30.5l-26 10q-87 33 -87 140v88q0 51 45 79q-37 37 -37 115v45q0 60 39 98.5t112 38.5t112 -38.5t39 -98.5
v-18l-122 -4v16q0 34 -29 34t-29 -34v-40q0 -24 14.5 -34.5t64.5 -30.5l26 -10q87 -33 87 -140zM173 362h-2q-21 -8 -21 -38v-68q0 -21 11.5 -32.5t43.5 -23.5l1 -1q22 7 22 39v68q0 21 -11.5 32.5t-43.5 23.5z" />
    <glyph glyph-name="dieresis" unicode="&#xa8;" horiz-adv-x="288" 
d="M117 701v-107h-100v107h100zM271 701v-107h-100v107h100z" />
    <glyph glyph-name="copyright" unicode="&#xa9;" horiz-adv-x="552" 
d="M26 287v126q0 149 66.5 224t183.5 75t183.5 -75t66.5 -224v-126q0 -149 -66.5 -224t-183.5 -75t-183.5 75t-66.5 224zM91 405v-110q0 -246 185 -246t185 246v110q0 246 -185 246t-185 -246zM246 426v-152q0 -36 6 -52t25 -16t25 16t6 52v2l83 -2v-12q0 -63 -31 -96
t-83 -33t-83 33t-31 96v176q0 63 31 96t83 33t83 -33t31 -96v-12l-83 -2v2q0 36 -6 52t-25 16t-25 -16t-6 -52z" />
    <glyph glyph-name="ordfeminine" unicode="&#xaa;" horiz-adv-x="306" 
d="M147 405q17 0 30 17v62h-19q-39 0 -39 -39v-10q0 -30 28 -30zM131 593v-8l-94 4v8q0 51 31 81t86 30q56 0 87.5 -30t31.5 -81v-264h-96v26q-22 -35 -67 -35q-40 0 -63.5 27.5t-23.5 76.5v15q0 53 33 82.5t94 29.5h27v38q0 34 -23 34t-23 -34z" />
    <glyph glyph-name="guillemotleft" unicode="&#xab;" horiz-adv-x="379" 
d="M23 344l163 133v-105l-77 -60l77 -60v-105l-163 133v64zM193 344l163 133v-105l-77 -60l77 -60v-105l-163 133v64z" />
    <glyph glyph-name="logicalnot" unicode="&#xac;" horiz-adv-x="423" 
d="M32 273v102h349v-232h-119v130h-230z" />
    <glyph glyph-name="uni00AD" unicode="&#xad;" horiz-adv-x="314" 
d="M30 272v104h254v-104h-254z" />
    <glyph glyph-name="registered" unicode="&#xae;" horiz-adv-x="552" 
d="M26 287v126q0 149 66.5 224t183.5 75t183.5 -75t66.5 -224v-126q0 -149 -66.5 -224t-183.5 -75t-183.5 75t-66.5 224zM91 405v-110q0 -246 185 -246t185 246v110q0 246 -185 246t-185 -246zM402 427q0 -82 -55 -115l60 -173h-83l-50 157h-23v-157h-83v419h113
q54 0 87.5 -33t33.5 -98zM251 369h22q46 0 46 58t-46 58h-22v-116z" />
    <glyph glyph-name="macron" unicode="&#xaf;" horiz-adv-x="288" 
d="M25 606v82h238v-82h-238z" />
    <glyph glyph-name="degree" unicode="&#xb0;" horiz-adv-x="276" 
d="M23 601q0 49 32.5 81t82.5 32t82.5 -32t32.5 -81t-32.5 -81t-82.5 -32t-82.5 32t-32.5 81zM103 601q0 -18 10 -28.5t25 -10.5t25 10.5t10 28.5t-10 28.5t-25 10.5t-25 -10.5t-10 -28.5z" />
    <glyph glyph-name="plusminus" unicode="&#xb1;" horiz-adv-x="423" 
d="M30 0v102h363v-102h-363zM30 283v102h122v135h119v-135h122v-102h-122v-135h-119v135h-122z" />
    <glyph glyph-name="twosuperior" unicode="&#xb2;" 
d="M161 562v14q0 37 -20 37q-21 0 -21 -37v-30l-99 2v24q0 66 31 101t89 35q119 0 119 -134v-12q0 -60 -30 -108l-82 -129h114v-88h-239v69l121 196q17 26 17 60z" />
    <glyph glyph-name="threesuperior" unicode="&#xb3;" 
d="M117 392v-32q0 -23 5 -33t18 -10t18 10t5 33v50q0 44 -26 44q-13 0 -25 -12l-49 49l77 120h-109v89h219v-79l-63 -95q36 -4 55.5 -35t19.5 -83v-40q0 -139 -122 -139t-122 139v20z" />
    <glyph glyph-name="acute" unicode="&#xb4;" horiz-adv-x="288" 
d="M220 730l-77 -161h-85l52 161h110z" />
    <glyph glyph-name="mu" unicode="&#xb5;" horiz-adv-x="421" 
d="M162 500v-331q0 -73 46 -73q19 0 32.5 13t18.5 35v356h122v-500h-122v37q-16 -49 -59 -49q-21 0 -38 13v-219h-122v718h122z" />
    <glyph glyph-name="paragraph" unicode="&#xb6;" horiz-adv-x="406" 
d="M186 700h175v-831h-74v756h-27v-756h-74v398q-72 0 -115.5 53.5t-43.5 153.5v20q0 99 43.5 152.5t115.5 53.5z" />
    <glyph glyph-name="periodcentered" unicode="&#xb7;" horiz-adv-x="202" 
d="M167 393v-138h-132v138h132z" />
    <glyph glyph-name="cedilla" unicode="&#xb8;" horiz-adv-x="288" 
d="M46 -204l43 64q15 -13 32 -13q22 0 22 21q0 28 -43 38l-6 9l26 85h83l-17 -55q56 -30 56 -84v-6q0 -43 -27.5 -68t-74.5 -25q-58 0 -94 34z" />
    <glyph glyph-name="onesuperior" unicode="&#xb9;" 
d="M261 237h-220v88h60v275l-60 -26v87l81 39h79v-375h60v-88z" />
    <glyph glyph-name="ordmasculine" unicode="&#xba;" horiz-adv-x="306" 
d="M279 585v-138q0 -56 -34 -89.5t-92 -33.5t-92 33.5t-34 89.5v138q0 56 34 89.5t92 33.5t92 -33.5t34 -89.5zM183 450v132q0 46 -30 46t-30 -46v-132q0 -46 30 -46t30 46z" />
    <glyph glyph-name="guillemotright" unicode="&#xbb;" horiz-adv-x="379" 
d="M193 477l163 -133v-64l-163 -133v105l77 60l-77 60v105zM23 477l163 -133v-64l-163 -133v105l77 60l-77 60v105z" />
    <glyph glyph-name="onequarter" unicode="&#xbc;" horiz-adv-x="712" 
d="M258 237h-220v88h61v275l-61 -26v87l82 39h78v-375h60v-88zM512 700l-221 -700h-91l222 700h90zM515 172h51v116zM695 172v-88h-35v-84h-94v84h-132v76l132 303h94v-291h35z" />
    <glyph glyph-name="onehalf" unicode="&#xbd;" horiz-adv-x="712" 
d="M261 237h-220v88h60v275l-60 -26v87l81 39h79v-375h60v-88zM512 700l-222 -700h-90l222 700h90zM590 325v14q0 37 -20 37q-21 0 -21 -37v-30l-99 2v24q0 66 31 101t89 35q119 0 119 -134v-12q0 -60 -30 -108l-82 -129h114v-88h-239v69l121 196q17 26 17 60z" />
    <glyph glyph-name="threequarters" unicode="&#xbe;" horiz-adv-x="712" 
d="M117 392v-32q0 -23 5 -33t18 -10t18 10t5 33v50q0 44 -26 44q-13 0 -25 -12l-49 49l77 120h-109v89h219v-79l-63 -95q36 -4 55.5 -35t19.5 -83v-40q0 -139 -122 -139t-122 139v20zM512 700l-222 -700h-90l222 700h90zM515 172h52v116zM695 172v-88h-34v-84h-94v84h-133
v76l133 303h94v-291h34z" />
    <glyph glyph-name="questiondown" unicode="&#xbf;" horiz-adv-x="393" 
d="M135 370v130h124v-130h-124zM366 -1v-25q0 -86 -43.5 -136t-123.5 -50q-82 0 -124 51t-42 140v21q0 57 17 94t57 90q17 22 22.5 40.5t5.5 51.5v30h124v-34q0 -64 -13 -101t-52 -77q-37 -38 -37 -92v-23q0 -66 42 -66q43 0 43 66v25z" />
    <glyph glyph-name="Agrave" unicode="&#xc0;" horiz-adv-x="469" 
d="M329 0l-24 125h-141l-24 -125h-138l163 700h139l163 -700h-138zM234 490l-47 -246h95zM198 763l-77 161h110l52 -161h-85z" />
    <glyph glyph-name="Aacute" unicode="&#xc1;" horiz-adv-x="469" 
d="M329 0l-24 125h-141l-24 -125h-138l163 700h139l163 -700h-138zM234 490l-47 -246h95zM346 924l-77 -161h-85l52 161h110z" />
    <glyph glyph-name="Acircumflex" unicode="&#xc2;" horiz-adv-x="469" 
d="M329 0l-24 125h-141l-24 -125h-138l163 700h139l163 -700h-138zM234 490l-47 -246h95zM104 763l87 161h86l87 -161h-79l-51 76l-51 -76h-79z" />
    <glyph glyph-name="Atilde" unicode="&#xc3;" horiz-adv-x="469" 
d="M329 0l-24 125h-141l-24 -125h-138l163 700h139l163 -700h-138zM234 490l-47 -246h95zM273 863q19 0 20 41l75 -7q-3 -64 -25 -94.5t-56 -30.5t-59 25q-20 20 -33 20q-19 0 -20 -41l-75 7q3 64 25 94.5t56 30.5t59 -25q20 -20 33 -20z" />
    <glyph glyph-name="Adieresis" unicode="&#xc4;" horiz-adv-x="469" 
d="M329 0l-24 125h-141l-24 -125h-138l163 700h139l163 -700h-138zM234 490l-47 -246h95zM207 895v-107h-100v107h100zM361 895v-107h-100v107h100z" />
    <glyph glyph-name="Aring" unicode="&#xc5;" horiz-adv-x="469" 
d="M329 0l-24 125h-141l-24 -125h-138l163 700h139l163 -700h-138zM234 490l-47 -246h95zM326 840q0 -41 -27 -64.5t-65 -23.5t-65 23.5t-27 64.5t27 64.5t65 23.5t65 -23.5t27 -64.5zM207 840q0 -14 7.5 -23t19.5 -9t19.5 9t7.5 23t-7.5 23t-19.5 9t-19.5 -9t-7.5 -23z" />
    <glyph glyph-name="AE" unicode="&#xc6;" horiz-adv-x="675" 
d="M215 700h434v-119h-209v-163h179v-119h-179v-181h209v-118h-343v125h-123l-35 -125h-146zM216 244h90v314z" />
    <glyph glyph-name="Ccedilla" unicode="&#xc7;" horiz-adv-x="459" 
d="M131 -204l43 64q15 -13 32 -13q22 0 22 21q0 28 -43 38l-6 9l23 75q-79 9 -124 66t-45 158v272q0 110 54 168t147 58t147 -58t54 -168v-25l-134 -5v19q0 63 -16.5 90.5t-50.5 27.5t-50.5 -27.5t-16.5 -90.5v-250q0 -63 16.5 -90.5t50.5 -27.5t50.5 27.5t16.5 90.5v19
l134 -5v-25q0 -94 -39.5 -150t-109.5 -71l-15 -48q56 -30 56 -84v-6q0 -43 -27.5 -68t-74.5 -25q-58 0 -94 34z" />
    <glyph glyph-name="Egrave" unicode="&#xc8;" horiz-adv-x="414" 
d="M44 0v700h344v-119h-210v-162h180v-119h-180v-181h210v-119h-344zM196 763l-77 161h110l52 -161h-85z" />
    <glyph glyph-name="Eacute" unicode="&#xc9;" horiz-adv-x="414" 
d="M44 0v700h344v-119h-210v-162h180v-119h-180v-181h210v-119h-344zM309 924l-77 -161h-85l52 161h110z" />
    <glyph glyph-name="Ecircumflex" unicode="&#xca;" horiz-adv-x="414" 
d="M44 0v700h344v-119h-210v-162h180v-119h-180v-181h210v-119h-344zM87 763l87 161h86l87 -161h-79l-51 76l-51 -76h-79z" />
    <glyph glyph-name="Edieresis" unicode="&#xcb;" horiz-adv-x="414" 
d="M44 0v700h344v-119h-210v-162h180v-119h-180v-181h210v-119h-344zM192 895v-107h-100v107h100zM346 895v-107h-100v107h100z" />
    <glyph glyph-name="Igrave" unicode="&#xcc;" horiz-adv-x="222" 
d="M178 700v-700h-134v700h134zM86 763l-77 161h110l52 -161h-85z" />
    <glyph glyph-name="Iacute" unicode="&#xcd;" horiz-adv-x="222" 
d="M178 700v-700h-134v700h134zM213 924l-77 -161h-85l52 161h110z" />
    <glyph glyph-name="Icircumflex" unicode="&#xce;" horiz-adv-x="222" 
d="M178 700v-700h-134v700h134zM-19 763l87 161h86l87 -161h-79l-51 76l-51 -76h-79z" />
    <glyph glyph-name="Idieresis" unicode="&#xcf;" horiz-adv-x="222" 
d="M178 700v-700h-134v700h134zM84 895v-107h-100v107h100zM238 895v-107h-100v107h100z" />
    <glyph glyph-name="Eth" unicode="&#xd0;" horiz-adv-x="469" 
d="M52 0v307h-52v87h52v306h181q93 0 147 -58t54 -168v-248q0 -110 -54 -168t-147 -58h-181zM300 237v226q0 63 -16.5 90.5t-50.5 27.5h-47v-187h59v-87h-59v-188h47q34 0 50.5 27.5t16.5 90.5z" />
    <glyph glyph-name="Ntilde" unicode="&#xd1;" horiz-adv-x="488" 
d="M328 0l-154 406v-406h-130v700h116l154 -406v406h130v-700h-116zM283 863q19 0 20 41l75 -7q-3 -64 -25 -94.5t-56 -30.5t-59 25q-20 20 -33 20q-19 0 -20 -41l-75 7q3 64 25 94.5t56 30.5t59 -25q20 -20 33 -20z" />
    <glyph glyph-name="Ograve" unicode="&#xd2;" horiz-adv-x="468" 
d="M301 225v250q0 63 -16.5 90.5t-50.5 27.5t-50.5 -27.5t-16.5 -90.5v-250q0 -63 16.5 -90.5t50.5 -27.5t50.5 27.5t16.5 90.5zM435 486v-272q0 -110 -54 -168t-147 -58t-147 58t-54 168v272q0 110 54 168t147 58t147 -58t54 -168zM210 763l-77 161h110l52 -161h-85z" />
    <glyph glyph-name="Oacute" unicode="&#xd3;" horiz-adv-x="468" 
d="M301 225v250q0 63 -16.5 90.5t-50.5 27.5t-50.5 -27.5t-16.5 -90.5v-250q0 -63 16.5 -90.5t50.5 -27.5t50.5 27.5t16.5 90.5zM435 486v-272q0 -110 -54 -168t-147 -58t-147 58t-54 168v272q0 110 54 168t147 58t147 -58t54 -168zM335 924l-77 -161h-85l52 161h110z" />
    <glyph glyph-name="Ocircumflex" unicode="&#xd4;" horiz-adv-x="468" 
d="M301 225v250q0 63 -16.5 90.5t-50.5 27.5t-50.5 -27.5t-16.5 -90.5v-250q0 -63 16.5 -90.5t50.5 -27.5t50.5 27.5t16.5 90.5zM435 486v-272q0 -110 -54 -168t-147 -58t-147 58t-54 168v272q0 110 54 168t147 58t147 -58t54 -168zM104 763l87 161h86l87 -161h-79l-51 76
l-51 -76h-79z" />
    <glyph glyph-name="Otilde" unicode="&#xd5;" horiz-adv-x="468" 
d="M301 225v250q0 63 -16.5 90.5t-50.5 27.5t-50.5 -27.5t-16.5 -90.5v-250q0 -63 16.5 -90.5t50.5 -27.5t50.5 27.5t16.5 90.5zM435 486v-272q0 -110 -54 -168t-147 -58t-147 58t-54 168v272q0 110 54 168t147 58t147 -58t54 -168zM273 863q19 0 20 41l75 -7
q-3 -64 -25 -94.5t-56 -30.5t-59 25q-20 20 -33 20q-19 0 -20 -41l-75 7q3 64 25 94.5t56 30.5t59 -25q20 -20 33 -20z" />
    <glyph glyph-name="Odieresis" unicode="&#xd6;" horiz-adv-x="468" 
d="M301 225v250q0 63 -16.5 90.5t-50.5 27.5t-50.5 -27.5t-16.5 -90.5v-250q0 -63 16.5 -90.5t50.5 -27.5t50.5 27.5t16.5 90.5zM435 486v-272q0 -110 -54 -168t-147 -58t-147 58t-54 168v272q0 110 54 168t147 58t147 -58t54 -168zM207 895v-107h-100v107h100zM361 895
v-107h-100v107h100z" />
    <glyph glyph-name="multiply" unicode="&#xd7;" horiz-adv-x="423" 
d="M317 143l-105 105l-105 -105l-77 76l105 105l-105 105l77 76l105 -105l105 105l77 -76l-105 -105l105 -105z" />
    <glyph glyph-name="Oslash" unicode="&#xd8;" horiz-adv-x="468" 
d="M64 -32l27 73q-58 60 -58 173v272q0 110 54 168t147 58q53 0 96 -20l15 40h58l-27 -73q59 -61 59 -173v-272q0 -110 -54 -168t-147 -58q-54 0 -97 20l-15 -40h-58zM301 225v229l-118 -320q16 -27 51 -27q34 0 50.5 27.5t16.5 90.5zM167 475v-227l117 318q-16 27 -50 27
t-50.5 -27.5t-16.5 -90.5z" />
    <glyph glyph-name="Ugrave" unicode="&#xd9;" horiz-adv-x="482" 
d="M241 -12q-95 0 -149 58t-54 168v486h134v-475q0 -62 16.5 -90.5t52.5 -28.5t52.5 28.5t16.5 90.5v475h134v-486q0 -110 -54 -168t-149 -58zM210 763l-77 161h110l52 -161h-85z" />
    <glyph glyph-name="Uacute" unicode="&#xda;" horiz-adv-x="482" 
d="M241 -12q-95 0 -149 58t-54 168v486h134v-475q0 -62 16.5 -90.5t52.5 -28.5t52.5 28.5t16.5 90.5v475h134v-486q0 -110 -54 -168t-149 -58zM349 924l-77 -161h-85l52 161h110z" />
    <glyph glyph-name="Ucircumflex" unicode="&#xdb;" horiz-adv-x="482" 
d="M241 -12q-95 0 -149 58t-54 168v486h134v-475q0 -62 16.5 -90.5t52.5 -28.5t52.5 28.5t16.5 90.5v475h134v-486q0 -110 -54 -168t-149 -58zM111 763l87 161h86l87 -161h-79l-51 76l-51 -76h-79z" />
    <glyph glyph-name="Udieresis" unicode="&#xdc;" horiz-adv-x="482" 
d="M241 -12q-95 0 -149 58t-54 168v486h134v-475q0 -62 16.5 -90.5t52.5 -28.5t52.5 28.5t16.5 90.5v475h134v-486q0 -110 -54 -168t-149 -58zM214 895v-107h-100v107h100zM368 895v-107h-100v107h100z" />
    <glyph glyph-name="Yacute" unicode="&#xdd;" horiz-adv-x="450" 
d="M158 0v318l-152 382h139l80 -237l80 237h139l-152 -382v-318h-134zM334 924l-77 -161h-85l52 161h110z" />
    <glyph glyph-name="Thorn" unicode="&#xde;" horiz-adv-x="450" 
d="M44 700h134v-123h49q86 0 141.5 -57t55.5 -173q0 -115 -55.5 -172t-141.5 -57h-49v-118h-134v700zM290 347q0 111 -82 111h-30v-221h30q82 0 82 110z" />
    <glyph glyph-name="germandbls" unicode="&#xdf;" horiz-adv-x="450" 
d="M397 532v-28q0 -94 -73 -130q112 -38 112 -164v-49q0 -84 -42 -128.5t-118 -44.5q-48 0 -86 20l28 110q22 -11 42 -11q42 0 42 70v21q0 83 -83 98l-17 101q29 10 45 37t16 62v27q0 70 -44 70q-23 0 -33 -16t-10 -54v-523h-134v532q0 85 46 132.5t131 47.5t131.5 -47.5
t46.5 -132.5z" />
    <glyph glyph-name="agrave" unicode="&#xe0;" horiz-adv-x="397" 
d="M188 89q33 0 49 45v69h-45q-47 0 -47 -56v-12q0 -46 43 -46zM43 351v6q0 72 41.5 113.5t116.5 41.5q77 0 117.5 -42t40.5 -118v-352h-122v38q-27 -50 -90 -50q-53 0 -87 37.5t-34 106.5v15q0 72 42 111.5t119 39.5h50v51q0 54 -36 54q-35 0 -35 -58zM182 564l-77 161h110
l52 -161h-85z" />
    <glyph glyph-name="aacute" unicode="&#xe1;" horiz-adv-x="397" 
d="M188 89q33 0 49 45v69h-45q-47 0 -47 -56v-12q0 -46 43 -46zM43 351v6q0 72 41.5 113.5t116.5 41.5q77 0 117.5 -42t40.5 -118v-352h-122v38q-27 -50 -90 -50q-53 0 -87 37.5t-34 106.5v15q0 72 42 111.5t119 39.5h50v51q0 54 -36 54q-35 0 -35 -58zM304 725l-77 -161
h-85l52 161h110z" />
    <glyph glyph-name="acircumflex" unicode="&#xe2;" horiz-adv-x="397" 
d="M188 89q33 0 49 45v69h-45q-47 0 -47 -56v-12q0 -46 43 -46zM43 351v6q0 72 41.5 113.5t116.5 41.5q77 0 117.5 -42t40.5 -118v-352h-122v38q-27 -50 -90 -50q-53 0 -87 37.5t-34 106.5v15q0 72 42 111.5t119 39.5h50v51q0 54 -36 54q-35 0 -35 -58zM74 564l87 161h86
l87 -161h-79l-51 76l-51 -76h-79z" />
    <glyph glyph-name="atilde" unicode="&#xe3;" horiz-adv-x="397" 
d="M188 89q33 0 49 45v69h-45q-47 0 -47 -56v-12q0 -46 43 -46zM43 351v6q0 72 41.5 113.5t116.5 41.5q77 0 117.5 -42t40.5 -118v-352h-122v38q-27 -50 -90 -50q-53 0 -87 37.5t-34 106.5v15q0 72 42 111.5t119 39.5h50v51q0 54 -36 54q-35 0 -35 -58zM239 664q19 0 20 41
l75 -7q-3 -64 -25 -94.5t-56 -30.5t-59 25q-20 20 -33 20q-19 0 -20 -41l-75 7q3 64 25 94.5t56 30.5t59 -25q20 -20 33 -20z" />
    <glyph glyph-name="adieresis" unicode="&#xe4;" horiz-adv-x="397" 
d="M188 89q33 0 49 45v69h-45q-47 0 -47 -56v-12q0 -46 43 -46zM43 351v6q0 72 41.5 113.5t116.5 41.5q77 0 117.5 -42t40.5 -118v-352h-122v38q-27 -50 -90 -50q-53 0 -87 37.5t-34 106.5v15q0 72 42 111.5t119 39.5h50v51q0 54 -36 54q-35 0 -35 -58zM175 696v-107h-100
v107h100zM329 696v-107h-100v107h100z" />
    <glyph glyph-name="aring" unicode="&#xe5;" horiz-adv-x="397" 
d="M188 89q33 0 49 45v69h-45q-47 0 -47 -56v-12q0 -46 43 -46zM43 351v6q0 72 41.5 113.5t116.5 41.5q77 0 117.5 -42t40.5 -118v-352h-122v38q-27 -50 -90 -50q-53 0 -87 37.5t-34 106.5v15q0 72 42 111.5t119 39.5h50v51q0 54 -36 54q-35 0 -35 -58zM291 645
q0 -41 -27 -64.5t-65 -23.5t-65 23.5t-27 64.5t27 64.5t65 23.5t65 -23.5t27 -64.5zM172 645q0 -14 7.5 -23t19.5 -9t19.5 9t7.5 23t-7.5 23t-19.5 9t-19.5 -9t-7.5 -23z" />
    <glyph glyph-name="ae" unicode="&#xe6;" horiz-adv-x="608" 
d="M237 298v51q0 54 -36 54q-35 0 -35 -58l-123 6v6q0 71 41 113t112 42q73 0 107 -47q37 47 109 47q76 0 121.5 -50t45.5 -138v-118h-220v-40q1 -69 49 -69q41 0 48 53l121 -6q-8 -75 -53 -115.5t-116 -40.5q-90 0 -126 59q-40 -59 -121 -59q-62 0 -98.5 37t-36.5 107v15
q0 72 42 111.5t119 39.5h50zM188 89q33 0 49 45v69h-45q-47 0 -47 -56v-12q0 -46 43 -46zM359 326v-22h98v22q0 77 -49 77t-49 -77z" />
    <glyph glyph-name="ccedilla" unicode="&#xe7;" horiz-adv-x="393" 
d="M95 -204l43 64q15 -13 32 -13q22 0 22 21q0 28 -43 38l-6 9l23 76q-64 10 -100.5 58t-36.5 127v148q0 89 46.5 138.5t124.5 49.5t124.5 -49.5t46.5 -138.5v-5l-122 -5v12q0 77 -49 77t-49 -77v-152q0 -77 49 -77t49 77v12l122 -5v-5q0 -73 -32.5 -120t-88.5 -62l-15 -49
q56 -30 56 -84v-6q0 -43 -27.5 -68t-74.5 -25q-58 0 -94 34z" />
    <glyph glyph-name="egrave" unicode="&#xe8;" horiz-adv-x="400" 
d="M371 324v-118h-220v-32q0 -77 49 -77q41 0 48 53l121 -6q-8 -75 -53 -115.5t-116 -40.5q-78 0 -124.5 49.5t-46.5 138.5v148q0 89 46.5 138.5t124.5 49.5t124.5 -49.5t46.5 -138.5zM151 326v-22h98v22q0 77 -49 77t-49 -77zM171 564l-77 161h110l52 -161h-85z" />
    <glyph glyph-name="eacute" unicode="&#xe9;" horiz-adv-x="400" 
d="M371 324v-118h-220v-32q0 -77 49 -77q41 0 48 53l121 -6q-8 -75 -53 -115.5t-116 -40.5q-78 0 -124.5 49.5t-46.5 138.5v148q0 89 46.5 138.5t124.5 49.5t124.5 -49.5t46.5 -138.5zM151 326v-22h98v22q0 77 -49 77t-49 -77zM303 725l-77 -161h-85l52 161h110z" />
    <glyph glyph-name="ecircumflex" unicode="&#xea;" horiz-adv-x="400" 
d="M371 324v-118h-220v-32q0 -77 49 -77q41 0 48 53l121 -6q-8 -75 -53 -115.5t-116 -40.5q-78 0 -124.5 49.5t-46.5 138.5v148q0 89 46.5 138.5t124.5 49.5t124.5 -49.5t46.5 -138.5zM151 326v-22h98v22q0 77 -49 77t-49 -77zM68 564l87 161h86l87 -161h-79l-51 76l-51 -76
h-79z" />
    <glyph glyph-name="edieresis" unicode="&#xeb;" horiz-adv-x="400" 
d="M371 324v-118h-220v-32q0 -77 49 -77q41 0 48 53l121 -6q-8 -75 -53 -115.5t-116 -40.5q-78 0 -124.5 49.5t-46.5 138.5v148q0 89 46.5 138.5t124.5 49.5t124.5 -49.5t46.5 -138.5zM151 326v-22h98v22q0 77 -49 77t-49 -77zM171 696v-107h-100v107h100zM325 696v-107
h-100v107h100z" />
    <glyph glyph-name="igrave" unicode="&#xec;" horiz-adv-x="208" 
d="M43 0v500h122v-500h-122zM65 564l-77 161h110l52 -161h-85z" />
    <glyph glyph-name="iacute" unicode="&#xed;" horiz-adv-x="208" 
d="M43 0v500h122v-500h-122zM220 725l-77 -161h-85l52 161h110z" />
    <glyph glyph-name="icircumflex" unicode="&#xee;" horiz-adv-x="208" 
d="M43 0v500h122v-500h-122zM-26 564l87 161h86l87 -161h-79l-51 76l-51 -76h-79z" />
    <glyph glyph-name="idieresis" unicode="&#xef;" horiz-adv-x="208" 
d="M43 0v500h122v-500h-122zM77 696v-107h-100v107h100zM231 696v-107h-100v107h100z" />
    <glyph glyph-name="eth" unicode="&#xf0;" horiz-adv-x="400" 
d="M342 682l13 -65l-63 -17l60 -173q19 -54 19 -98v-154q0 -88 -47 -137.5t-124 -49.5q-78 0 -124.5 49t-46.5 138v149q0 87 44.5 136.5t122.5 49.5l-20 57l-80 -23l-13 65l72 21l-27 82h126l17 -51zM200 96q49 0 49 77v153q0 77 -49 77t-49 -77v-153q0 -77 49 -77z" />
    <glyph glyph-name="ntilde" unicode="&#xf1;" horiz-adv-x="417" 
d="M161 355v-355h-122v500h122v-44q27 56 93 56q62 0 94 -44t32 -125v-343h-122v336q0 67 -46 67q-40 0 -51 -48zM245 664q19 0 20 41l75 -7q-3 -64 -25 -94.5t-56 -30.5t-59 25q-20 20 -33 20q-19 0 -20 -41l-75 7q3 64 25 94.5t56 30.5t59 -25q20 -20 33 -20z" />
    <glyph glyph-name="ograve" unicode="&#xf2;" horiz-adv-x="400" 
d="M151 326v-152q0 -77 49 -77t49 77v152q0 77 -49 77t-49 -77zM29 176v148q0 89 46.5 138.5t124.5 49.5t124.5 -49.5t46.5 -138.5v-148q0 -89 -46.5 -138.5t-124.5 -49.5t-124.5 49.5t-46.5 138.5zM174 564l-77 161h110l52 -161h-85z" />
    <glyph glyph-name="oacute" unicode="&#xf3;" horiz-adv-x="400" 
d="M151 326v-152q0 -77 49 -77t49 77v152q0 77 -49 77t-49 -77zM29 176v148q0 89 46.5 138.5t124.5 49.5t124.5 -49.5t46.5 -138.5v-148q0 -89 -46.5 -138.5t-124.5 -49.5t-124.5 49.5t-46.5 138.5zM303 725l-77 -161h-85l52 161h110z" />
    <glyph glyph-name="ocircumflex" unicode="&#xf4;" horiz-adv-x="400" 
d="M151 326v-152q0 -77 49 -77t49 77v152q0 77 -49 77t-49 -77zM29 176v148q0 89 46.5 138.5t124.5 49.5t124.5 -49.5t46.5 -138.5v-148q0 -89 -46.5 -138.5t-124.5 -49.5t-124.5 49.5t-46.5 138.5zM70 564l87 161h86l87 -161h-79l-51 76l-51 -76h-79z" />
    <glyph glyph-name="otilde" unicode="&#xf5;" horiz-adv-x="400" 
d="M151 326v-152q0 -77 49 -77t49 77v152q0 77 -49 77t-49 -77zM29 176v148q0 89 46.5 138.5t124.5 49.5t124.5 -49.5t46.5 -138.5v-148q0 -89 -46.5 -138.5t-124.5 -49.5t-124.5 49.5t-46.5 138.5zM239 664q19 0 20 41l75 -7q-3 -64 -25 -94.5t-56 -30.5t-59 25
q-20 20 -33 20q-19 0 -20 -41l-75 7q3 64 25 94.5t56 30.5t59 -25q20 -20 33 -20z" />
    <glyph glyph-name="odieresis" unicode="&#xf6;" horiz-adv-x="400" 
d="M151 326v-152q0 -77 49 -77t49 77v152q0 77 -49 77t-49 -77zM29 176v148q0 89 46.5 138.5t124.5 49.5t124.5 -49.5t46.5 -138.5v-148q0 -89 -46.5 -138.5t-124.5 -49.5t-124.5 49.5t-46.5 138.5zM173 696v-107h-100v107h100zM327 696v-107h-100v107h100z" />
    <glyph glyph-name="divide" unicode="&#xf7;" horiz-adv-x="423" 
d="M30 273v102h363v-102h-363zM267 532v-115h-110v115h110zM267 231v-115h-110v115h110z" />
    <glyph glyph-name="oslash" unicode="&#xf8;" horiz-adv-x="400" 
d="M66 -38l23 62q-60 49 -60 152v148q0 89 46.5 138.5t124.5 49.5q36 0 68 -12l14 38h52l-24 -62q61 -50 61 -152v-148q0 -89 -46.5 -138.5t-124.5 -49.5q-38 0 -68 12l-14 -38h-52zM151 326v-138l77 206q-12 9 -28 9q-49 0 -49 -77zM200 97q49 0 49 77v137l-77 -205
q10 -9 28 -9z" />
    <glyph glyph-name="ugrave" unicode="&#xf9;" horiz-adv-x="417" 
d="M255 145v355h122v-500h-122v44q-27 -56 -93 -56q-62 0 -94 44t-32 125v343h122v-336q0 -67 46 -67q40 0 51 48zM177 564l-77 161h110l52 -161h-85z" />
    <glyph glyph-name="uacute" unicode="&#xfa;" horiz-adv-x="417" 
d="M255 145v355h122v-500h-122v44q-27 -56 -93 -56q-62 0 -94 44t-32 125v343h122v-336q0 -67 46 -67q40 0 51 48zM307 725l-77 -161h-85l52 161h110z" />
    <glyph glyph-name="ucircumflex" unicode="&#xfb;" horiz-adv-x="417" 
d="M255 145v355h122v-500h-122v44q-27 -56 -93 -56q-62 0 -94 44t-32 125v343h122v-336q0 -67 46 -67q40 0 51 48zM76 564l87 161h86l87 -161h-79l-51 76l-51 -76h-79z" />
    <glyph glyph-name="udieresis" unicode="&#xfc;" horiz-adv-x="417" 
d="M255 145v355h122v-500h-122v44q-27 -56 -93 -56q-62 0 -94 44t-32 125v343h122v-336q0 -67 46 -67q40 0 51 48zM179 696v-107h-100v107h100zM333 696v-107h-100v107h100z" />
    <glyph glyph-name="yacute" unicode="&#xfd;" horiz-adv-x="386" 
d="M120 -52l17 66l-134 486h125l66 -283l62 283h125l-142 -559q-22 -88 -54.5 -120t-98.5 -32h-50v109h40q17 0 27 11t17 39zM299 725l-77 -161h-85l52 161h110z" />
    <glyph glyph-name="thorn" unicode="&#xfe;" horiz-adv-x="410" 
d="M161 365v-230q14 -38 48 -38q49 0 49 78v150q0 78 -49 78q-34 0 -48 -38zM380 335v-169q0 -91 -36.5 -134.5t-95.5 -43.5q-63 0 -87 49v-255h-122v930h122v-249q24 49 87 49q59 0 95.5 -43t36.5 -134z" />
    <glyph glyph-name="ydieresis" unicode="&#xff;" horiz-adv-x="386" 
d="M120 -52l17 66l-134 486h125l66 -283l62 283h125l-142 -559q-22 -88 -54.5 -120t-98.5 -32h-50v109h40q17 0 27 11t17 39zM165 696v-107h-100v107h100zM319 696v-107h-100v107h100z" />
    <glyph glyph-name="Amacron" unicode="&#x100;" horiz-adv-x="469" 
d="M329 0l-24 125h-141l-24 -125h-138l163 700h139l163 -700h-138zM234 490l-47 -246h95zM115 801v82h238v-82h-238z" />
    <glyph glyph-name="amacron" unicode="&#x101;" horiz-adv-x="397" 
d="M188 89q33 0 49 45v69h-45q-47 0 -47 -56v-12q0 -46 43 -46zM43 351v6q0 72 41.5 113.5t116.5 41.5q77 0 117.5 -42t40.5 -118v-352h-122v38q-27 -50 -90 -50q-53 0 -87 37.5t-34 106.5v15q0 72 42 111.5t119 39.5h50v51q0 54 -36 54q-35 0 -35 -58zM87 602v82h238v-82
h-238z" />
    <glyph glyph-name="Abreve" unicode="&#x102;" horiz-adv-x="469" 
d="M329 0l-24 125h-141l-24 -125h-138l163 700h139l163 -700h-138zM234 490l-47 -246h95zM234 762q-118 0 -126 140l83 9q2 -37 11.5 -54t31.5 -17t31.5 17t11.5 54l83 -9q-8 -140 -126 -140z" />
    <glyph glyph-name="abreve" unicode="&#x103;" horiz-adv-x="397" 
d="M188 89q33 0 49 45v69h-45q-47 0 -47 -56v-12q0 -46 43 -46zM43 351v6q0 72 41.5 113.5t116.5 41.5q77 0 117.5 -42t40.5 -118v-352h-122v38q-27 -50 -90 -50q-53 0 -87 37.5t-34 106.5v15q0 72 42 111.5t119 39.5h50v51q0 54 -36 54q-35 0 -35 -58zM206 565
q-118 0 -126 140l83 9q2 -37 11.5 -54t31.5 -17t31.5 17t11.5 54l83 -9q-8 -140 -126 -140z" />
    <glyph glyph-name="Aogonek" unicode="&#x104;" horiz-adv-x="469" 
d="M329 0l-25 125h-140l-24 -125h-138l163 700h139l163 -700h-52q-51 -45 -51 -91v-4q0 -31 24 -31q15 0 28 13l55 -62q-39 -44 -100 -44q-48 0 -76 26.5t-28 71.5v7q0 30 16.5 62t45.5 52zM234 490l-47 -246h94z" />
    <glyph glyph-name="aogonek" unicode="&#x105;" horiz-adv-x="397" 
d="M43 351v6q0 72 41.5 113.5t116.5 41.5q77 0 117.5 -42t40.5 -118v-352h-36q-51 -45 -51 -91v-4q0 -31 24 -31q15 0 28 13l55 -62q-39 -44 -100 -44q-48 0 -76 26.5t-28 71.5v7q0 30 16.5 62t45.5 52v38q-27 -50 -90 -50q-53 0 -87 37.5t-34 106.5v15q0 72 42 111.5
t119 39.5h50v51q0 54 -36 54q-35 0 -35 -58zM188 89q33 0 49 45v69h-45q-47 0 -47 -56v-12q0 -46 43 -46z" />
    <glyph glyph-name="Cacute" unicode="&#x106;" horiz-adv-x="459" 
d="M435 239v-25q0 -110 -54 -168t-147 -58t-147 58t-54 168v272q0 110 54 168t147 58t147 -58t54 -168v-25l-134 -5v19q0 63 -16.5 90.5t-50.5 27.5t-50.5 -27.5t-16.5 -90.5v-250q0 -63 16.5 -90.5t50.5 -27.5t50.5 27.5t16.5 90.5v19zM335 924l-77 -161h-85l52 161h110z
" />
    <glyph glyph-name="cacute" unicode="&#x107;" horiz-adv-x="393" 
d="M371 181v-5q0 -89 -46.5 -138.5t-124.5 -49.5t-124.5 49.5t-46.5 138.5v148q0 89 46.5 138.5t124.5 49.5t124.5 -49.5t46.5 -138.5v-5l-122 -5v12q0 77 -49 77t-49 -77v-152q0 -77 49 -77t49 77v12zM291 725l-77 -161h-85l52 161h110z" />
    <glyph glyph-name="Ccircumflex" unicode="&#x108;" horiz-adv-x="459" 
d="M435 239v-25q0 -110 -54 -168t-147 -58t-147 58t-54 168v272q0 110 54 168t147 58t147 -58t54 -168v-25l-134 -5v19q0 63 -16.5 90.5t-50.5 27.5t-50.5 -27.5t-16.5 -90.5v-250q0 -63 16.5 -90.5t50.5 -27.5t50.5 27.5t16.5 90.5v19zM103 763l87 161h86l87 -161h-79
l-51 76l-51 -76h-79z" />
    <glyph glyph-name="ccircumflex" unicode="&#x109;" horiz-adv-x="393" 
d="M371 181v-5q0 -89 -46.5 -138.5t-124.5 -49.5t-124.5 49.5t-46.5 138.5v148q0 89 46.5 138.5t124.5 49.5t124.5 -49.5t46.5 -138.5v-5l-122 -5v12q0 77 -49 77t-49 -77v-152q0 -77 49 -77t49 77v12zM68 564l87 161h86l87 -161h-79l-51 76l-51 -76h-79z" />
    <glyph glyph-name="Cdotaccent" unicode="&#x10a;" horiz-adv-x="459" 
d="M435 214v25l-134 5v-19q0 -63 -16.5 -90.5t-50.5 -27.5t-50.5 27.5t-16.5 90.5v250q0 63 16.5 90.5t50.5 27.5t50.5 -27.5t16.5 -90.5v-19l134 5v25q0 110 -54 168t-147 58t-147 -58t-54 -168v-272q0 -110 54 -168t147 -58t147 58t54 168zM285 897v-110h-104v110h104z
" />
    <glyph glyph-name="cdotaccent" unicode="&#x10b;" horiz-adv-x="393" 
d="M371 176v5l-122 5v-12q0 -77 -49 -77t-49 77v152q0 77 49 77t49 -77v-12l122 5v5q0 89 -46.5 138.5t-124.5 49.5t-124.5 -49.5t-46.5 -138.5v-148q0 -89 46.5 -138.5t124.5 -49.5t124.5 49.5t46.5 138.5zM250 698v-110h-104v110h104z" />
    <glyph glyph-name="Ccaron" unicode="&#x10c;" horiz-adv-x="459" 
d="M435 239v-25q0 -110 -54 -168t-147 -58t-147 58t-54 168v272q0 110 54 168t147 58t147 -58t54 -168v-25l-134 -5v19q0 63 -16.5 90.5t-50.5 27.5t-50.5 -27.5t-16.5 -90.5v-250q0 -63 16.5 -90.5t50.5 -27.5t50.5 27.5t16.5 90.5v19zM190 763l-87 161h79l51 -76l51 76h79
l-87 -161h-86z" />
    <glyph glyph-name="ccaron" unicode="&#x10d;" horiz-adv-x="393" 
d="M371 181v-5q0 -89 -46.5 -138.5t-124.5 -49.5t-124.5 49.5t-46.5 138.5v148q0 89 46.5 138.5t124.5 49.5t124.5 -49.5t46.5 -138.5v-5l-122 -5v12q0 77 -49 77t-49 -77v-152q0 -77 49 -77t49 77v12zM155 564l-87 161h79l51 -76l51 76h79l-87 -161h-86z" />
    <glyph glyph-name="Dcaron" unicode="&#x10e;" horiz-adv-x="459" 
d="M44 0v700h181q93 0 147 -58t54 -168v-248q0 -110 -54 -168t-147 -58h-181zM292 237v226q0 63 -16.5 90.5t-50.5 27.5h-47v-462h47q34 0 50.5 27.5t16.5 90.5zM170 763l-87 161h79l51 -76l51 76h79l-87 -161h-86z" />
    <glyph glyph-name="dcaron" unicode="&#x10f;" horiz-adv-x="535" 
d="M249 135v230q-14 38 -48 38q-49 0 -49 -78v-150q0 -78 49 -78q34 0 48 38zM30 165v169q0 91 36.5 134.5t95.5 43.5q63 0 87 -49v249h122v-712h-122v37q-24 -49 -87 -49q-59 0 -95.5 43t-36.5 134zM463 586h-56v126h123v-123q0 -57 -30.5 -90t-92.5 -35v56q29 4 40.5 18.5
t15.5 47.5z" />
    <glyph glyph-name="Dcroat" unicode="&#x110;" horiz-adv-x="469" 
d="M52 0v307h-52v87h52v306h181q93 0 147 -58t54 -168v-248q0 -110 -54 -168t-147 -58h-181zM300 237v226q0 63 -16.5 90.5t-50.5 27.5h-47v-187h59v-87h-59v-188h47q34 0 50.5 27.5t16.5 90.5z" />
    <glyph glyph-name="dcroat" unicode="&#x111;" horiz-adv-x="416" 
d="M30 165v169q0 91 36.5 134.5t95.5 43.5q63 0 87 -49v107h-101v85h101v57h122v-57h44v-85h-44v-570h-122v37q-24 -49 -87 -49q-59 0 -95.5 43t-36.5 134zM249 135v230q-14 38 -48 38q-49 0 -49 -78v-150q0 -78 49 -78q34 0 48 38z" />
    <glyph glyph-name="Emacron" unicode="&#x112;" horiz-adv-x="414" 
d="M44 0v700h344v-119h-210v-162h180v-119h-180v-181h210v-119h-344zM97 801v82h238v-82h-238z" />
    <glyph glyph-name="emacron" unicode="&#x113;" horiz-adv-x="400" 
d="M371 324v-118h-220v-32q0 -77 49 -77q41 0 48 53l121 -6q-8 -75 -53 -115.5t-116 -40.5q-78 0 -124.5 49.5t-46.5 138.5v148q0 89 46.5 138.5t124.5 49.5t124.5 -49.5t46.5 -138.5zM151 326v-22h98v22q0 77 -49 77t-49 -77zM78 602v82h238v-82h-238z" />
    <glyph glyph-name="Ebreve" unicode="&#x114;" horiz-adv-x="414" 
d="M44 0v700h344v-119h-210v-162h180v-119h-180v-181h210v-119h-344zM215 762q-118 0 -126 140l83 9q2 -37 11.5 -54t31.5 -17t31.5 17t11.5 54l83 -9q-8 -140 -126 -140z" />
    <glyph glyph-name="ebreve" unicode="&#x115;" horiz-adv-x="400" 
d="M371 324v-118h-220v-32q0 -77 49 -77q41 0 48 53l121 -6q-8 -75 -53 -115.5t-116 -40.5q-78 0 -124.5 49.5t-46.5 138.5v148q0 89 46.5 138.5t124.5 49.5t124.5 -49.5t46.5 -138.5zM151 326v-22h98v22q0 77 -49 77t-49 -77zM197 565q-118 0 -126 140l83 9q2 -37 11.5 -54
t31.5 -17t31.5 17t11.5 54l83 -9q-8 -140 -126 -140z" />
    <glyph glyph-name="Edotaccent" unicode="&#x116;" horiz-adv-x="414" 
d="M44 0v700h344v-119h-210v-162h180v-119h-180v-181h210v-119h-344zM271 897v-110h-104v110h104z" />
    <glyph glyph-name="edotaccent" unicode="&#x117;" horiz-adv-x="400" 
d="M371 324v-118h-220v-32q0 -77 49 -77q41 0 48 53l121 -6q-8 -75 -53 -115.5t-116 -40.5q-78 0 -124.5 49.5t-46.5 138.5v148q0 89 46.5 138.5t124.5 49.5t124.5 -49.5t46.5 -138.5zM151 326v-22h98v22q0 77 -49 77t-49 -77zM249 698v-110h-104v110h104z" />
    <glyph glyph-name="Eogonek" unicode="&#x118;" horiz-adv-x="414" 
d="M44 0v700h344v-119h-210v-162h180v-119h-180v-181h210v-119h-32q-51 -45 -51 -91v-4q0 -31 24 -31q15 0 28 13l55 -62q-39 -44 -100 -44q-48 0 -76 26.5t-28 71.5v7q0 30 16.5 62t45.5 52h-226z" />
    <glyph glyph-name="eogonek" unicode="&#x119;" horiz-adv-x="400" 
d="M371 324v-118h-220v-32q0 -77 49 -77q41 0 48 53l121 -6q-12 -110 -98 -144q-48 -43 -48 -91v-4q0 -31 24 -31q15 0 28 13l55 -62q-39 -44 -100 -44q-48 0 -76 26.5t-28 71.5v7q0 58 49 104q-68 8 -107 56.5t-39 129.5v148q0 89 46.5 138.5t124.5 49.5t124.5 -49.5
t46.5 -138.5zM151 326v-22h98v22q0 77 -49 77t-49 -77z" />
    <glyph glyph-name="Ecaron" unicode="&#x11a;" horiz-adv-x="414" 
d="M44 0v700h344v-119h-210v-162h180v-119h-180v-181h210v-119h-344zM174 763l-87 161h79l51 -76l51 76h79l-87 -161h-86z" />
    <glyph glyph-name="ecaron" unicode="&#x11b;" horiz-adv-x="400" 
d="M371 324v-118h-220v-32q0 -77 49 -77q41 0 48 53l121 -6q-8 -75 -53 -115.5t-116 -40.5q-78 0 -124.5 49.5t-46.5 138.5v148q0 89 46.5 138.5t124.5 49.5t124.5 -49.5t46.5 -138.5zM151 326v-22h98v22q0 77 -49 77t-49 -77zM154 564l-87 161h79l51 -76l51 76h79l-87 -161
h-86z" />
    <glyph glyph-name="Gcircumflex" unicode="&#x11c;" horiz-adv-x="463" 
d="M232 374v-112h69v-37q0 -63 -16.5 -90.5t-50.5 -27.5t-50.5 27.5t-16.5 90.5v250q0 63 16.5 90.5t50.5 27.5t50.5 -27.5t16.5 -90.5v-19l134 5v25q0 110 -54 168t-147 58t-147 -58t-54 -168v-272q0 -110 54 -168t147 -58t147 58t54 168v160h-203zM99 763l87 161h86
l87 -161h-79l-51 76l-51 -76h-79z" />
    <glyph glyph-name="gcircumflex" unicode="&#x11d;" horiz-adv-x="410" 
d="M30 334v-169q0 -91 36.5 -134t95.5 -43q63 0 87 49v-84q0 -77 -47 -77q-42 0 -47 58l-122 -6q5 -78 49.5 -119t119.5 -41q78 0 123.5 44.5t45.5 128.5v559h-122v-37q-24 49 -87 49q-59 0 -95.5 -43.5t-36.5 -134.5zM249 365v-230q-14 -38 -48 -38q-49 0 -49 78v150
q0 78 49 78q34 0 48 -38zM79 564l87 161h86l87 -161h-79l-51 76l-51 -76h-79z" />
    <glyph glyph-name="Gbreve" unicode="&#x11e;" horiz-adv-x="463" 
d="M232 262v112h203v-160q0 -110 -54 -168t-147 -58t-147 58t-54 168v272q0 110 54 168t147 58t147 -58t54 -168v-25l-134 -5v19q0 63 -16.5 90.5t-50.5 27.5t-50.5 -27.5t-16.5 -90.5v-250q0 -63 16.5 -90.5t50.5 -27.5t50.5 27.5t16.5 90.5v37h-69zM229 762
q-118 0 -126 140l83 9q2 -37 11.5 -54t31.5 -17t31.5 17t11.5 54l83 -9q-8 -140 -126 -140z" />
    <glyph glyph-name="gbreve" unicode="&#x11f;" horiz-adv-x="410" 
d="M30 165v169q0 91 36.5 134.5t95.5 43.5q63 0 87 -49v37h122v-559q0 -84 -45.5 -128.5t-123.5 -44.5q-75 0 -119.5 41t-49.5 119l122 6q5 -58 47 -58q47 0 47 77v84q-24 -49 -87 -49q-59 0 -95.5 43t-36.5 134zM249 135v230q-14 38 -48 38q-49 0 -49 -78v-150
q0 -78 49 -78q34 0 48 38zM209 565q-118 0 -126 140l83 9q2 -37 11.5 -54t31.5 -17t31.5 17t11.5 54l83 -9q-8 -140 -126 -140z" />
    <glyph glyph-name="Gdotaccent" unicode="&#x120;" horiz-adv-x="463" 
d="M232 374v-112h69v-37q0 -63 -16.5 -90.5t-50.5 -27.5t-50.5 27.5t-16.5 90.5v250q0 63 16.5 90.5t50.5 27.5t50.5 -27.5t16.5 -90.5v-19l134 5v25q0 110 -54 168t-147 58t-147 -58t-54 -168v-272q0 -110 54 -168t147 -58t147 58t54 168v160h-203zM281 897v-110h-104v110
h104z" />
    <glyph glyph-name="gdotaccent" unicode="&#x121;" horiz-adv-x="410" 
d="M30 165v169q0 91 36.5 134.5t95.5 43.5q63 0 87 -49v37h122v-559q0 -84 -45.5 -128.5t-123.5 -44.5q-75 0 -119.5 41t-49.5 119l122 6q5 -58 47 -58q47 0 47 77v84q-24 -49 -87 -49q-59 0 -95.5 43t-36.5 134zM249 135v230q-14 38 -48 38q-49 0 -49 -78v-150
q0 -78 49 -78q34 0 48 38zM261 698v-110h-104v110h104z" />
    <glyph glyph-name="Gcommaaccent" unicode="&#x122;" horiz-adv-x="463" 
d="M232 262v112h203v-160q0 -110 -54 -168t-147 -58t-147 58t-54 168v272q0 110 54 168t147 58t147 -58t54 -168v-25l-134 -5v19q0 63 -16.5 90.5t-50.5 27.5t-50.5 -27.5t-16.5 -90.5v-250q0 -63 16.5 -90.5t50.5 -27.5t50.5 27.5t16.5 90.5v37h-69zM299 -49l-57 -161h-81
l32 161h106z" />
    <glyph glyph-name="gcommaaccent" unicode="&#x123;" horiz-adv-x="410" 
d="M30 334v-169q0 -91 36.5 -134t95.5 -43q63 0 87 49v-84q0 -77 -47 -77q-42 0 -47 58l-122 -6q5 -78 49.5 -119t119.5 -41q78 0 123.5 44.5t45.5 128.5v559h-122v-37q-24 49 -87 49q-59 0 -95.5 -43.5t-36.5 -134.5zM249 365v-230q-14 -38 -48 -38q-49 0 -49 78v150
q0 78 49 78q34 0 48 -38zM159 551l57 161h81l-32 -161h-106z" />
    <glyph glyph-name="Hcircumflex" unicode="&#x124;" horiz-adv-x="474" 
d="M295 0v300h-116v-300h-135v700h135v-281h116v281h135v-700h-135zM107 763l87 161h86l87 -161h-79l-51 76l-51 -76h-79z" />
    <glyph glyph-name="hcircumflex" unicode="&#x125;" horiz-adv-x="417" 
d="M161 355v-355h-122v712h122v-256q27 56 93 56q62 0 94 -44t32 -125v-343h-122v336q0 67 -46 67q-40 0 -51 -48zM-29 763l87 161h86l87 -161h-79l-51 76l-51 -76h-79z" />
    <glyph glyph-name="Hbar" unicode="&#x126;" horiz-adv-x="484" 
d="M300 0v300h-116v-300h-135v515h-46v87h46v98h135v-98h116v98h135v-98h46v-87h-46v-515h-135zM184 419h116v96h-116v-96z" />
    <glyph glyph-name="hbar" unicode="&#x127;" horiz-adv-x="417" 
d="M161 355v-355h-122v570h-44v85h44v57h122v-57h101v-85h-101v-114q27 56 93 56q62 0 94 -44t32 -125v-343h-122v336q0 67 -46 67q-40 0 -51 -48z" />
    <glyph glyph-name="Itilde" unicode="&#x128;" horiz-adv-x="222" 
d="M178 700v-700h-134v700h134zM150 863q19 0 20 41l75 -7q-3 -64 -25 -94.5t-56 -30.5t-59 25q-20 20 -33 20q-19 0 -20 -41l-75 7q3 64 25 94.5t56 30.5t59 -25q20 -20 33 -20z" />
    <glyph glyph-name="itilde" unicode="&#x129;" horiz-adv-x="208" 
d="M43 0v500h122v-500h-122zM143 664q19 0 20 41l75 -7q-3 -64 -25 -94.5t-56 -30.5t-59 25q-20 20 -33 20q-19 0 -20 -41l-75 7q3 64 25 94.5t56 30.5t59 -25q20 -20 33 -20z" />
    <glyph glyph-name="Imacron" unicode="&#x12a;" horiz-adv-x="222" 
d="M178 700v-700h-134v700h134zM-8 801v82h238v-82h-238z" />
    <glyph glyph-name="imacron" unicode="&#x12b;" horiz-adv-x="208" 
d="M43 0v500h122v-500h-122zM-15 602v82h238v-82h-238z" />
    <glyph glyph-name="Ibreve" unicode="&#x12c;" horiz-adv-x="222" 
d="M178 700v-700h-134v700h134zM111 762q-118 0 -126 140l83 9q2 -37 11.5 -54t31.5 -17t31.5 17t11.5 54l83 -9q-8 -140 -126 -140z" />
    <glyph glyph-name="ibreve" unicode="&#x12d;" horiz-adv-x="208" 
d="M43 0v500h122v-500h-122zM104 565q-118 0 -126 140l83 9q2 -37 11.5 -54t31.5 -17t31.5 17t11.5 54l83 -9q-8 -140 -126 -140z" />
    <glyph glyph-name="Iogonek" unicode="&#x12e;" horiz-adv-x="222" 
d="M92 0h-48v700h134v-700q-51 -45 -51 -91v-4q0 -31 24 -31q15 0 28 13l55 -62q-39 -44 -100 -44q-48 0 -76 26.5t-28 71.5v7q0 30 16.5 62t45.5 52z" />
    <glyph glyph-name="iogonek" unicode="&#x12f;" horiz-adv-x="208" 
d="M43 0v500h122v-500q-51 -45 -51 -91v-4q0 -31 24 -31q15 0 28 13l55 -62q-39 -44 -100 -44q-48 0 -76 26.5t-28 71.5v7q0 30 16.5 62t45.5 52h-36zM43 580v132h122v-132h-122z" />
    <glyph glyph-name="Idotaccent" unicode="&#x130;" horiz-adv-x="222" 
d="M178 700v-700h-134v700h134zM163 897v-110h-104v110h104z" />
    <glyph glyph-name="dotlessi" unicode="&#x131;" horiz-adv-x="208" 
d="M43 0v500h122v-500h-122z" />
    <glyph glyph-name="IJ" unicode="&#x132;" horiz-adv-x="660" 
d="M181 700v-700h-134v700h134zM382 214v-16q0 -92 51 -92t51 92v502h135v-509q0 -96 -49 -149.5t-137 -53.5t-137 53.5t-49 149.5v18z" />
    <glyph glyph-name="ij" unicode="&#x133;" horiz-adv-x="417" 
d="M43 0v500h122v-500h-122zM43 580v132h122v-132h-122zM251 580v132h122v-132h-122zM373 500v-540q0 -93 -36.5 -132.5t-116.5 -39.5h-43v109h30q26 0 35 14t9 50v539h122z" />
    <glyph glyph-name="Jcircumflex" unicode="&#x134;" horiz-adv-x="421" 
d="M144 214v-16q0 -92 51 -92t51 92v502h135v-509q0 -96 -49 -149.5t-137 -53.5t-137 53.5t-49 149.5v18zM182 763l87 161h86l87 -161h-79l-51 76l-51 -76h-79z" />
    <glyph glyph-name="jcircumflex" unicode="&#x135;" horiz-adv-x="208" 
d="M165 500v-540q0 -93 -36.5 -132.5t-116.5 -39.5h-43v109h30q26 0 35 14t9 50v539h122zM-24 564l87 161h86l87 -161h-79l-51 76l-51 -76h-79z" />
    <glyph glyph-name="Kcommaaccent" unicode="&#x136;" horiz-adv-x="464" 
d="M418 700v-68q0 -84 -19 -142t-68 -109l133 -381h-141l-94 287l-51 -47v-240h-134v700h134v-293l35 33q41 40 56 81.5t15 112.5v66h134zM304 -49l-57 -161h-81l32 161h106z" />
    <glyph glyph-name="kcommaaccent" unicode="&#x137;" horiz-adv-x="391" 
d="M357 500v-23q0 -74 -14 -117.5t-54 -82.5l101 -277h-126l-65 194l-38 -34v-160h-122v712h122v-401l25 24q30 29 39.5 56t9.5 77v32h122zM270 -49l-57 -161h-81l32 161h106z" />
    <glyph glyph-name="kgreenlandic" unicode="&#x138;" horiz-adv-x="391" 
d="M357 500v-23q0 -74 -14 -117.5t-54 -82.5l101 -277h-126l-65 194l-38 -34v-160h-122v500h122v-189l25 24q30 29 39.5 56t9.5 77v32h122z" />
    <glyph glyph-name="Lacute" unicode="&#x139;" horiz-adv-x="399" 
d="M44 0v700h134v-581h214v-119h-348zM224 924l-77 -161h-85l52 161h110z" />
    <glyph glyph-name="lacute" unicode="&#x13a;" horiz-adv-x="241" 
d="M41 160v552h122v-545q0 -34 8.5 -46t32.5 -12h28v-109h-58q-71 0 -102 37t-31 123zM223 924l-77 -161h-85l52 161h110z" />
    <glyph glyph-name="Lcommaaccent" unicode="&#x13b;" horiz-adv-x="399" 
d="M44 0v700h134v-581h214v-119h-348zM290 -49l-57 -161h-81l32 161h106z" />
    <glyph glyph-name="lcommaaccent" unicode="&#x13c;" horiz-adv-x="241" 
d="M41 160v552h122v-545q0 -34 8.5 -46t32.5 -12h28v-109h-58q-71 0 -102 37t-31 123zM209 -49l-57 -161h-81l32 161h106z" />
    <glyph glyph-name="Lcaron" unicode="&#x13d;" horiz-adv-x="399" 
d="M44 0v700h134v-581h214v-119h-348zM284 586h-56v126h123v-123q0 -57 -30.5 -90t-92.5 -35v56q29 4 40.5 18.5t15.5 47.5z" />
    <glyph glyph-name="lcaron" unicode="&#x13e;" horiz-adv-x="328" 
d="M41 160v552h122v-545q0 -34 8.5 -46t32.5 -12h28v-109h-58q-71 0 -102 37t-31 123zM256 586h-56v126h123v-123q0 -57 -30.5 -90t-92.5 -35v56q29 4 40.5 18.5t15.5 47.5z" />
    <glyph glyph-name="Ldot" unicode="&#x13f;" horiz-adv-x="399" 
d="M44 0v700h134v-581h214v-119h-348zM356 433v-110h-104v110h104z" />
    <glyph glyph-name="ldot" unicode="&#x140;" horiz-adv-x="332" 
d="M41 160v552h122v-545q0 -34 8.5 -46t32.5 -12h28v-109h-58q-71 0 -102 37t-31 123zM320 433v-110h-104v110h104z" />
    <glyph glyph-name="Lslash" unicode="&#x141;" horiz-adv-x="399" 
d="M44 0v233l-60 -30v99l60 30v368h134v-301l119 60v-99l-119 -60v-181h214v-119h-348z" />
    <glyph glyph-name="lslash" unicode="&#x142;" horiz-adv-x="264" 
d="M59 160v98l-49 -25v100l49 25v354h122v-291l59 31v-100l-59 -31v-154q0 -34 8.5 -46t32.5 -12h28v-109h-58q-71 0 -102 37t-31 123z" />
    <glyph glyph-name="Nacute" unicode="&#x143;" horiz-adv-x="488" 
d="M328 0l-154 406v-406h-130v700h116l154 -406v406h130v-700h-116zM337 924l-77 -161h-85l52 161h110z" />
    <glyph glyph-name="nacute" unicode="&#x144;" horiz-adv-x="417" 
d="M161 355v-355h-122v500h122v-44q27 56 93 56q62 0 94 -44t32 -125v-343h-122v336q0 67 -46 67q-40 0 -51 -48zM316 725l-77 -161h-85l52 161h110z" />
    <glyph glyph-name="Ncommaaccent" unicode="&#x145;" horiz-adv-x="488" 
d="M328 0l-154 406v-406h-130v700h116l154 -406v406h130v-700h-116zM321 -49l-57 -161h-81l32 161h106z" />
    <glyph glyph-name="ncommaaccent" unicode="&#x146;" horiz-adv-x="417" 
d="M161 355v-355h-122v500h122v-44q27 56 93 56q62 0 94 -44t32 -125v-343h-122v336q0 67 -46 67q-40 0 -51 -48zM273 -49l-57 -161h-81l32 161h106z" />
    <glyph glyph-name="Ncaron" unicode="&#x147;" horiz-adv-x="488" 
d="M328 0l-154 406v-406h-130v700h116l154 -406v406h130v-700h-116zM201 763l-87 161h79l51 -76l51 76h79l-87 -161h-86z" />
    <glyph glyph-name="ncaron" unicode="&#x148;" horiz-adv-x="417" 
d="M161 355v-355h-122v500h122v-44q27 56 93 56q62 0 94 -44t32 -125v-343h-122v336q0 67 -46 67q-40 0 -51 -48zM164 564l-87 161h79l51 -76l51 76h79l-87 -161h-86z" />
    <glyph glyph-name="napostrophe" unicode="&#x149;" horiz-adv-x="490" 
d="M234 355v-355h-122v500h122v-44q27 56 93 56q62 0 94 -44t32 -125v-343h-122v336q0 67 -46 67q-40 0 -51 -48zM56 586h-56v126h123v-123q0 -57 -30.5 -90t-92.5 -35v56q29 4 40.5 18.5t15.5 47.5z" />
    <glyph glyph-name="Eng" unicode="&#x14a;" horiz-adv-x="488" 
d="M444 700v-751q0 -86 -31 -123.5t-104 -37.5h-67v109h30q24 0 33 12t9 46v82l-140 369v-406h-130v700h116l154 -406v406h130z" />
    <glyph glyph-name="eng" unicode="&#x14b;" horiz-adv-x="417" 
d="M161 355v-355h-122v500h122v-44q27 56 93 56q62 0 94 -44t32 -125v-394q0 -86 -31 -123.5t-104 -37.5h-67v109h38q24 0 33 12t9 46v381q0 67 -46 67q-40 0 -51 -48z" />
    <glyph glyph-name="Omacron" unicode="&#x14c;" horiz-adv-x="468" 
d="M301 225v250q0 63 -16.5 90.5t-50.5 27.5t-50.5 -27.5t-16.5 -90.5v-250q0 -63 16.5 -90.5t50.5 -27.5t50.5 27.5t16.5 90.5zM435 486v-272q0 -110 -54 -168t-147 -58t-147 58t-54 168v272q0 110 54 168t147 58t147 -58t54 -168zM115 801v82h238v-82h-238z" />
    <glyph glyph-name="omacron" unicode="&#x14d;" horiz-adv-x="400" 
d="M151 326v-152q0 -77 49 -77t49 77v152q0 77 -49 77t-49 -77zM29 176v148q0 89 46.5 138.5t124.5 49.5t124.5 -49.5t46.5 -138.5v-148q0 -89 -46.5 -138.5t-124.5 -49.5t-124.5 49.5t-46.5 138.5zM81 602v82h238v-82h-238z" />
    <glyph glyph-name="Obreve" unicode="&#x14e;" horiz-adv-x="468" 
d="M301 225v250q0 63 -16.5 90.5t-50.5 27.5t-50.5 -27.5t-16.5 -90.5v-250q0 -63 16.5 -90.5t50.5 -27.5t50.5 27.5t16.5 90.5zM435 486v-272q0 -110 -54 -168t-147 -58t-147 58t-54 168v272q0 110 54 168t147 58t147 -58t54 -168zM234 762q-118 0 -126 140l83 9
q2 -37 11.5 -54t31.5 -17t31.5 17t11.5 54l83 -9q-8 -140 -126 -140z" />
    <glyph glyph-name="obreve" unicode="&#x14f;" horiz-adv-x="400" 
d="M151 326v-152q0 -77 49 -77t49 77v152q0 77 -49 77t-49 -77zM29 176v148q0 89 46.5 138.5t124.5 49.5t124.5 -49.5t46.5 -138.5v-148q0 -89 -46.5 -138.5t-124.5 -49.5t-124.5 49.5t-46.5 138.5zM200 565q-118 0 -126 140l83 9q2 -37 11.5 -54t31.5 -17t31.5 17t11.5 54
l83 -9q-8 -140 -126 -140z" />
    <glyph glyph-name="Ohungarumlaut" unicode="&#x150;" horiz-adv-x="468" 
d="M301 225v250q0 63 -16.5 90.5t-50.5 27.5t-50.5 -27.5t-16.5 -90.5v-250q0 -63 16.5 -90.5t50.5 -27.5t50.5 27.5t16.5 90.5zM435 486v-272q0 -110 -54 -168t-147 -58t-147 58t-54 168v272q0 110 54 168t147 58t147 -58t54 -168zM269 924l-72 -161h-79l47 161h104z
M413 924l-82 -161h-82l59 161h105z" />
    <glyph glyph-name="ohungarumlaut" unicode="&#x151;" horiz-adv-x="400" 
d="M151 326v-152q0 -77 49 -77t49 77v152q0 77 -49 77t-49 -77zM29 176v148q0 89 46.5 138.5t124.5 49.5t124.5 -49.5t46.5 -138.5v-148q0 -89 -46.5 -138.5t-124.5 -49.5t-124.5 49.5t-46.5 138.5zM231 725l-72 -161h-79l47 161h104zM375 725l-82 -161h-82l59 161h105z" />
    <glyph glyph-name="OE" unicode="&#x152;" horiz-adv-x="665" 
d="M639 119v-119h-405q-93 0 -147 58t-54 168v248q0 110 54 168t147 58h405v-119h-210v-162h180v-119h-180v-181h210zM167 463v-226q0 -63 16.5 -90.5t50.5 -27.5h61v462h-61q-34 0 -50.5 -27.5t-16.5 -90.5z" />
    <glyph glyph-name="oe" unicode="&#x153;" horiz-adv-x="620" 
d="M371 326v-22h98v22q0 77 -49 77t-49 -77zM200 97q49 0 49 77v152q0 77 -49 77t-49 -77v-152q0 -77 49 -77zM310 462q38 50 114 50t121.5 -49.5t45.5 -138.5v-118h-220v-32q0 -77 49 -77q41 0 48 53l121 -6q-8 -75 -53 -115.5t-116 -40.5q-74 0 -111 49q-39 -49 -113 -49
q-76 0 -121.5 50t-45.5 138v148q0 89 45.5 138.5t121.5 49.5t114 -50z" />
    <glyph glyph-name="Racute" unicode="&#x154;" horiz-adv-x="456" 
d="M343 290l103 -290h-141l-81 258h-46v-258h-134v700h183q86 0 141.5 -54.5t55.5 -166.5q0 -134 -81 -189zM290 479q0 102 -82 102h-30v-205h30q82 0 82 103zM306 924l-77 -161h-85l52 161h110z" />
    <glyph glyph-name="racute" unicode="&#x155;" horiz-adv-x="300" 
d="M39 0v500h123v-62q27 71 97 71q21 0 35 -6v-118q-18 7 -41 7q-66 0 -91 -65v-327h-123zM257 725l-77 -161h-85l52 161h110z" />
    <glyph glyph-name="Rcommaaccent" unicode="&#x156;" horiz-adv-x="456" 
d="M343 290l103 -290h-141l-81 258h-46v-258h-134v700h183q86 0 141.5 -54.5t55.5 -166.5q0 -134 -81 -189zM290 479q0 102 -82 102h-30v-205h30q82 0 82 103zM298 -49l-57 -161h-81l32 161h106z" />
    <glyph glyph-name="rcommaaccent" unicode="&#x157;" horiz-adv-x="300" 
d="M39 0v500h123v-62q27 71 97 71q21 0 35 -6v-118q-18 7 -41 7q-66 0 -91 -65v-327h-123zM154 -49l-57 -161h-81l32 161h106z" />
    <glyph glyph-name="Rcaron" unicode="&#x158;" horiz-adv-x="456" 
d="M343 290l103 -290h-141l-81 258h-46v-258h-134v700h183q86 0 141.5 -54.5t55.5 -166.5q0 -134 -81 -189zM290 479q0 102 -82 102h-30v-205h30q82 0 82 103zM164 763l-87 161h79l51 -76l51 76h79l-87 -161h-86z" />
    <glyph glyph-name="rcaron" unicode="&#x159;" horiz-adv-x="300" 
d="M39 0v500h123v-62q27 71 97 71q21 0 35 -6v-118q-18 7 -41 7q-66 0 -91 -65v-327h-123zM120 564l-87 161h79l51 -76l51 76h79l-87 -161h-86z" />
    <glyph glyph-name="Sacute" unicode="&#x15a;" horiz-adv-x="441" 
d="M32 189v13l134 5v-21q0 -80 57 -80t57 80v17q0 33 -14 51.5t-50 32.5l-38 15q-84 33 -115.5 73t-31.5 124v18q0 195 184 195t184 -195v-20l-134 -5v24q0 41 -12 59t-38 18t-38 -18t-12 -59v-12q0 -38 14 -52.5t61 -34.5l26 -11q83 -36 115.5 -77t32.5 -121v-19
q0 -97 -49.5 -149t-141.5 -52t-141.5 52t-49.5 149zM308 924l-77 -161h-85l52 161h110z" />
    <glyph glyph-name="sacute" unicode="&#x15b;" horiz-adv-x="370" 
d="M153 152v-15q0 -40 34 -40t34 40v5q0 21 -11.5 32.5t-43.5 23.5l-24 9q-62 24 -87.5 57.5t-25.5 97.5v13q0 60 39 98.5t112 38.5t112 -38.5t39 -98.5v-18l-122 -4v16q0 34 -29 34t-29 -34v-4q0 -24 14.5 -34.5t64.5 -30.5l26 -10q87 -33 87 -140v-18q0 -67 -42 -105.5
t-114 -38.5t-114 38.5t-42 105.5v15zM267 725l-77 -161h-85l52 161h110z" />
    <glyph glyph-name="Scircumflex" unicode="&#x15c;" horiz-adv-x="441" 
d="M32 189v13l134 5v-21q0 -80 57 -80t57 80v17q0 33 -14 51.5t-50 32.5l-38 15q-84 33 -115.5 73t-31.5 124v18q0 195 184 195t184 -195v-20l-134 -5v24q0 41 -12 59t-38 18t-38 -18t-12 -59v-12q0 -38 14 -52.5t61 -34.5l26 -11q83 -36 115.5 -77t32.5 -121v-19
q0 -97 -49.5 -149t-141.5 -52t-141.5 52t-49.5 149zM80 763l87 161h86l87 -161h-79l-51 76l-51 -76h-79z" />
    <glyph glyph-name="scircumflex" unicode="&#x15d;" horiz-adv-x="370" 
d="M153 152v-15q0 -40 34 -40t34 40v5q0 21 -11.5 32.5t-43.5 23.5l-24 9q-62 24 -87.5 57.5t-25.5 97.5v13q0 60 39 98.5t112 38.5t112 -38.5t39 -98.5v-18l-122 -4v16q0 34 -29 34t-29 -34v-4q0 -24 14.5 -34.5t64.5 -30.5l26 -10q87 -33 87 -140v-18q0 -67 -42 -105.5
t-114 -38.5t-114 38.5t-42 105.5v15zM47 564l87 161h86l87 -161h-79l-51 76l-51 -76h-79z" />
    <glyph glyph-name="Scedilla" unicode="&#x15e;" horiz-adv-x="441" 
d="M129 -204l43 64q15 -13 32 -13q22 0 22 21q0 28 -43 38l-6 9l22 74q-81 7 -124 58t-43 142v13l134 5v-21q0 -80 57 -80t57 80v17q0 33 -14 51.5t-50 32.5l-38 15q-84 33 -115.5 73t-31.5 124v18q0 195 184 195t184 -195v-20l-134 -5v24q0 41 -12 59t-38 18t-38 -18
t-12 -59v-12q0 -38 14 -52.5t61 -34.5l26 -11q83 -36 115.5 -77t32.5 -121v-19q0 -161 -130 -194l-15 -50q56 -30 56 -84v-6q0 -43 -27.5 -68t-74.5 -25q-58 0 -94 34z" />
    <glyph glyph-name="scedilla" unicode="&#x15f;" horiz-adv-x="370" 
d="M87 -204l43 64q15 -13 32 -13q22 0 22 21q0 28 -43 38l-6 9l23 75q-59 8 -93 45.5t-34 96.5v15l122 5v-15q0 -40 34 -40t34 40v5q0 21 -11.5 32.5t-43.5 23.5l-24 9q-62 24 -87.5 57.5t-25.5 97.5v13q0 60 39 98.5t112 38.5t112 -38.5t39 -98.5v-18l-122 -4v16
q0 34 -29 34t-29 -34v-4q0 -24 14.5 -34.5t64.5 -30.5l26 -10q87 -33 87 -140v-18q0 -52 -26.5 -87.5t-74.5 -48.5l-15 -51q56 -30 56 -84v-6q0 -43 -27.5 -68t-74.5 -25q-58 0 -94 34z" />
    <glyph glyph-name="Scaron" unicode="&#x160;" horiz-adv-x="441" 
d="M32 189v13l134 5v-21q0 -80 57 -80t57 80v17q0 33 -14 51.5t-50 32.5l-38 15q-84 33 -115.5 73t-31.5 124v18q0 195 184 195t184 -195v-20l-134 -5v24q0 41 -12 59t-38 18t-38 -18t-12 -59v-12q0 -38 14 -52.5t61 -34.5l26 -11q83 -36 115.5 -77t32.5 -121v-19
q0 -97 -49.5 -149t-141.5 -52t-141.5 52t-49.5 149zM167 763l-87 161h79l51 -76l51 76h79l-87 -161h-86z" />
    <glyph glyph-name="scaron" unicode="&#x161;" horiz-adv-x="370" 
d="M153 152v-15q0 -40 34 -40t34 40v5q0 21 -11.5 32.5t-43.5 23.5l-24 9q-62 24 -87.5 57.5t-25.5 97.5v13q0 60 39 98.5t112 38.5t112 -38.5t39 -98.5v-18l-122 -4v16q0 34 -29 34t-29 -34v-4q0 -24 14.5 -34.5t64.5 -30.5l26 -10q87 -33 87 -140v-18q0 -67 -42 -105.5
t-114 -38.5t-114 38.5t-42 105.5v15zM134 564l-87 161h79l51 -76l51 76h79l-87 -161h-86z" />
    <glyph glyph-name="Tcommaaccent" unicode="&#x162;" horiz-adv-x="402" 
d="M88 -204l43 64q15 -13 32 -13q22 0 22 21q0 28 -43 38l-6 9l26 85h-28v581h-128v119h390v-119h-128v-581h-23l-17 -55q56 -30 56 -84v-6q0 -43 -27.5 -68t-74.5 -25q-58 0 -94 34z" />
    <glyph glyph-name="tcommaaccent" unicode="&#x163;" 
d="M55 -204l43 64q15 -13 32 -13q22 0 22 21q0 28 -43 38l-6 9l28 93q-74 24 -74 152v231h-48v109h48v142h122v-142h86v-109h-86v-224q0 -35 8.5 -46.5t32.5 -11.5h48v-109h-56l-17 -55q56 -30 56 -84v-6q0 -43 -27.5 -68t-74.5 -25q-58 0 -94 34z" />
    <glyph glyph-name="Tcaron" unicode="&#x164;" horiz-adv-x="402" 
d="M6 581v119h390v-119h-128v-581h-134v581h-128zM158 763l-87 161h79l51 -76l51 76h79l-87 -161h-86z" />
    <glyph glyph-name="tcaron" unicode="&#x165;" horiz-adv-x="415" 
d="M9 391v109h48v142h122v-142h86v-109h-86v-224q0 -35 8.5 -46.5t32.5 -11.5h48v-109h-78q-71 0 -102 37t-31 123v231h-48zM344 586h-56v126h123v-123q0 -57 -30.5 -90t-92.5 -35v56q29 4 40.5 18.5t15.5 47.5z" />
    <glyph glyph-name="Tbar" unicode="&#x166;" horiz-adv-x="402" 
d="M59 388h75v193h-128v119h390v-119h-128v-193h75v-88h-75v-300h-134v300h-75v88z" />
    <glyph glyph-name="tbar" unicode="&#x167;" 
d="M18 312h39v79h-48v109h48v142h122v-142h86v-109h-86v-79h62v-86h-62v-59q0 -35 8.5 -46.5t32.5 -11.5h48v-109h-78q-71 0 -102 37t-31 123v66h-39v86z" />
    <glyph glyph-name="Utilde" unicode="&#x168;" horiz-adv-x="482" 
d="M241 -12q-95 0 -149 58t-54 168v486h134v-475q0 -62 16.5 -90.5t52.5 -28.5t52.5 28.5t16.5 90.5v475h134v-486q0 -110 -54 -168t-149 -58zM280 863q19 0 20 41l75 -7q-3 -64 -25 -94.5t-56 -30.5t-59 25q-20 20 -33 20q-19 0 -20 -41l-75 7q3 64 25 94.5t56 30.5t59 -25
q20 -20 33 -20z" />
    <glyph glyph-name="utilde" unicode="&#x169;" horiz-adv-x="417" 
d="M255 145v355h122v-500h-122v44q-27 -56 -93 -56q-62 0 -94 44t-32 125v343h122v-336q0 -67 46 -67q40 0 51 48zM246 664q19 0 20 41l75 -7q-3 -64 -25 -94.5t-56 -30.5t-59 25q-20 20 -33 20q-19 0 -20 -41l-75 7q3 64 25 94.5t56 30.5t59 -25q20 -20 33 -20z" />
    <glyph glyph-name="Umacron" unicode="&#x16a;" horiz-adv-x="482" 
d="M241 -12q-95 0 -149 58t-54 168v486h134v-475q0 -62 16.5 -90.5t52.5 -28.5t52.5 28.5t16.5 90.5v475h134v-486q0 -110 -54 -168t-149 -58zM122 801v82h238v-82h-238z" />
    <glyph glyph-name="umacron" unicode="&#x16b;" horiz-adv-x="417" 
d="M255 145v355h122v-500h-122v44q-27 -56 -93 -56q-62 0 -94 44t-32 125v343h122v-336q0 -67 46 -67q40 0 51 48zM87 602v82h238v-82h-238z" />
    <glyph glyph-name="Ubreve" unicode="&#x16c;" horiz-adv-x="482" 
d="M241 -12q-95 0 -149 58t-54 168v486h134v-475q0 -62 16.5 -90.5t52.5 -28.5t52.5 28.5t16.5 90.5v475h134v-486q0 -110 -54 -168t-149 -58zM241 762q-118 0 -126 140l83 9q2 -37 11.5 -54t31.5 -17t31.5 17t11.5 54l83 -9q-8 -140 -126 -140z" />
    <glyph glyph-name="ubreve" unicode="&#x16d;" horiz-adv-x="417" 
d="M255 145v355h122v-500h-122v44q-27 -56 -93 -56q-62 0 -94 44t-32 125v343h122v-336q0 -67 46 -67q40 0 51 48zM206 565q-118 0 -126 140l83 9q2 -37 11.5 -54t31.5 -17t31.5 17t11.5 54l83 -9q-8 -140 -126 -140z" />
    <glyph glyph-name="Uring" unicode="&#x16e;" horiz-adv-x="482" 
d="M241 -12q-95 0 -149 58t-54 168v486h134v-475q0 -62 16.5 -90.5t52.5 -28.5t52.5 28.5t16.5 90.5v475h134v-486q0 -110 -54 -168t-149 -58zM333 840q0 -41 -27 -64.5t-65 -23.5t-65 23.5t-27 64.5t27 64.5t65 23.5t65 -23.5t27 -64.5zM214 840q0 -14 7.5 -23t19.5 -9
t19.5 9t7.5 23t-7.5 23t-19.5 9t-19.5 -9t-7.5 -23z" />
    <glyph glyph-name="uring" unicode="&#x16f;" horiz-adv-x="417" 
d="M255 145v355h122v-500h-122v44q-27 -56 -93 -56q-62 0 -94 44t-32 125v343h122v-336q0 -67 46 -67q40 0 51 48zM298 641q0 -41 -27 -64.5t-65 -23.5t-65 23.5t-27 64.5t27 64.5t65 23.5t65 -23.5t27 -64.5zM179 641q0 -14 7.5 -23t19.5 -9t19.5 9t7.5 23t-7.5 23t-19.5 9
t-19.5 -9t-7.5 -23z" />
    <glyph glyph-name="Uhungarumlaut" unicode="&#x170;" horiz-adv-x="482" 
d="M241 -12q-95 0 -149 58t-54 168v486h134v-475q0 -62 16.5 -90.5t52.5 -28.5t52.5 28.5t16.5 90.5v475h134v-486q0 -110 -54 -168t-149 -58zM277 924l-72 -161h-79l47 161h104zM421 924l-82 -161h-82l59 161h105z" />
    <glyph glyph-name="uhungarumlaut" unicode="&#x171;" horiz-adv-x="417" 
d="M255 145v355h122v-500h-122v44q-27 -56 -93 -56q-62 0 -94 44t-32 125v343h122v-336q0 -67 46 -67q40 0 51 48zM243 725l-72 -161h-79l47 161h104zM387 725l-82 -161h-82l59 161h105z" />
    <glyph glyph-name="Uogonek" unicode="&#x172;" horiz-adv-x="482" 
d="M444 214q0 -88 -35 -143t-98 -73q-48 -45 -48 -89v-4q0 -31 24 -31q15 0 28 13l55 -62q-39 -44 -100 -44q-48 0 -76 26.5t-28 71.5v7q0 58 49 104q-84 8 -130.5 65t-46.5 159v486h134v-475q0 -62 16.5 -90.5t52.5 -28.5t52.5 28.5t16.5 90.5v475h134v-486z" />
    <glyph glyph-name="uogonek" unicode="&#x173;" horiz-adv-x="417" 
d="M255 0v44q-27 -56 -93 -56q-62 0 -94 44t-32 125v343h122v-336q0 -67 46 -67q40 0 51 48v355h122v-500h-36q-51 -45 -51 -91v-4q0 -31 24 -31q15 0 28 13l55 -62q-39 -44 -100 -44q-48 0 -76 26.5t-28 71.5v7q0 30 16.5 62t45.5 52z" />
    <glyph glyph-name="Wcircumflex" unicode="&#x174;" horiz-adv-x="700" 
d="M487 261l72 439h134l-139 -700h-128l-76 450l-76 -450h-128l-139 700h134l72 -439l73 439h128zM220 763l87 161h86l87 -161h-79l-51 76l-51 -76h-79z" />
    <glyph glyph-name="wcircumflex" unicode="&#x175;" horiz-adv-x="598" 
d="M185 209l60 291h108l60 -291l55 291h127l-117 -500h-115l-64 308l-64 -308h-115l-117 500h127zM169 564l87 161h86l87 -161h-79l-51 76l-51 -76h-79z" />
    <glyph glyph-name="Ycircumflex" unicode="&#x176;" horiz-adv-x="450" 
d="M158 0v318l-152 382h139l80 -237l80 237h139l-152 -382v-318h-134zM95 763l87 161h86l87 -161h-79l-51 76l-51 -76h-79z" />
    <glyph glyph-name="ycircumflex" unicode="&#x177;" horiz-adv-x="386" 
d="M120 -52l17 66l-134 486h125l66 -283l62 283h125l-142 -559q-22 -88 -54.5 -120t-98.5 -32h-50v109h40q17 0 27 11t17 39zM63 564l87 161h86l87 -161h-79l-51 76l-51 -76h-79z" />
    <glyph glyph-name="Ydieresis" unicode="&#x178;" horiz-adv-x="450" 
d="M158 0v318l-152 382h139l80 -237l80 237h139l-152 -382v-318h-134zM198 895v-107h-100v107h100zM352 895v-107h-100v107h100z" />
    <glyph glyph-name="Zacute" unicode="&#x179;" horiz-adv-x="401" 
d="M23 91l193 490h-186v119h348v-91l-193 -490h193v-119h-355v91zM309 924l-77 -161h-85l52 161h110z" />
    <glyph glyph-name="zacute" unicode="&#x17a;" horiz-adv-x="357" 
d="M330 500v-85l-156 -307h163v-108h-317v85l155 307h-147v108h302zM282 725l-77 -161h-85l52 161h110z" />
    <glyph glyph-name="Zdotaccent" unicode="&#x17b;" horiz-adv-x="401" 
d="M23 91l193 490h-186v119h348v-91l-193 -490h193v-119h-355v91zM260 897v-110h-104v110h104z" />
    <glyph glyph-name="zdotaccent" unicode="&#x17c;" horiz-adv-x="357" 
d="M330 500v-85l-156 -307h163v-108h-317v85l155 307h-147v108h302zM233 698v-110h-104v110h104z" />
    <glyph glyph-name="Zcaron" unicode="&#x17d;" horiz-adv-x="401" 
d="M23 91l193 490h-186v119h348v-91l-193 -490h193v-119h-355v91zM162 763l-87 161h79l51 -76l51 76h79l-87 -161h-86z" />
    <glyph glyph-name="zcaron" unicode="&#x17e;" horiz-adv-x="357" 
d="M330 500v-85l-156 -307h163v-108h-317v85l155 307h-147v108h302zM136 564l-87 161h79l51 -76l51 76h79l-87 -161h-86z" />
    <glyph glyph-name="longs" unicode="&#x17f;" horiz-adv-x="271" 
d="M14 391v109h49v51q0 86 31 123.5t104 37.5h67v-109h-38q-24 0 -33 -12t-9 -46v-545h-122v391h-49z" />
    <glyph glyph-name="uni0191" unicode="&#x191;" horiz-adv-x="401" 
d="M44 700h344v-119h-210v-172h187v-119h-187v-341q0 -86 -33 -123.5t-106 -37.5h-67v109h30q24 0 33 12t9 46v745z" />
    <glyph glyph-name="florin" unicode="&#x192;" horiz-adv-x="271" 
d="M185 391v-442q0 -86 -31 -123.5t-104 -37.5h-67v109h38q24 0 33 12t9 46v436h-49v109h49v51q0 86 31 123.5t104 37.5h67v-109h-38q-24 0 -33 -12t-9 -46v-45h80v-109h-80z" />
    <glyph glyph-name="Aringacute" unicode="&#x1fa;" horiz-adv-x="469" 
d="M329 0l-24 125h-141l-24 -125h-138l159 683h10q-29 23 -29 67q0 41 27 64.5t65 23.5t65 -23.5t27 -64.5q0 -44 -30 -67h12l159 -683h-138zM234 490l-47 -246h95zM328 958l-54 -100h-82l32 100h104zM207 750q0 -14 7.5 -23t19.5 -9t19.5 9t7.5 23t-7.5 23t-19.5 9
t-19.5 -9t-7.5 -23z" />
    <glyph glyph-name="aringacute" unicode="&#x1fb;" horiz-adv-x="397" 
d="M293 852l-54 -100h-82l32 100h104zM291 644q0 -41 -27 -64.5t-65 -23.5t-65 23.5t-27 64.5t27 64.5t65 23.5t65 -23.5t27 -64.5zM172 644q0 -14 7.5 -23t19.5 -9t19.5 9t7.5 23t-7.5 23t-19.5 9t-19.5 -9t-7.5 -23zM188 89q33 0 49 45v69h-45q-47 0 -47 -56v-12
q0 -46 43 -46zM43 351v6q0 72 41.5 113.5t116.5 41.5q77 0 117.5 -42t40.5 -118v-352h-122v38q-27 -50 -90 -50q-53 0 -87 37.5t-34 106.5v15q0 72 42 111.5t119 39.5h50v51q0 54 -36 54q-35 0 -35 -58z" />
    <glyph glyph-name="AEacute" unicode="&#x1fc;" horiz-adv-x="675" 
d="M215 700h434v-119h-209v-163h179v-119h-179v-181h209v-118h-343v125h-123l-35 -125h-146zM216 244h90v314zM519 924l-77 -161h-85l52 161h110z" />
    <glyph glyph-name="aeacute" unicode="&#x1fd;" horiz-adv-x="608" 
d="M237 298v51q0 54 -36 54q-35 0 -35 -58l-123 6v6q0 71 41 113t112 42q73 0 107 -47q37 47 109 47q76 0 121.5 -50t45.5 -138v-118h-220v-40q1 -69 49 -69q41 0 48 53l121 -6q-8 -75 -53 -115.5t-116 -40.5q-90 0 -126 59q-40 -59 -121 -59q-62 0 -98.5 37t-36.5 107v15
q0 72 42 111.5t119 39.5h50zM188 89q33 0 49 45v69h-45q-47 0 -47 -56v-12q0 -46 43 -46zM359 326v-22h98v22q0 77 -49 77t-49 -77zM407 725l-77 -161h-85l52 161h110z" />
    <glyph glyph-name="Oslashacute" unicode="&#x1fe;" horiz-adv-x="468" 
d="M64 -32l27 73q-58 60 -58 173v272q0 110 54 168t147 58q53 0 96 -20l15 40h58l-27 -73q59 -61 59 -173v-272q0 -110 -54 -168t-147 -58q-54 0 -97 20l-15 -40h-58zM301 225v229l-118 -320q16 -27 51 -27q34 0 50.5 27.5t16.5 90.5zM167 475v-227l117 318q-16 27 -50 27
t-50.5 -27.5t-16.5 -90.5zM334 924l-77 -161h-85l52 161h110z" />
    <glyph glyph-name="oslashacute" unicode="&#x1ff;" horiz-adv-x="400" 
d="M66 -38l23 62q-60 49 -60 152v148q0 89 46.5 138.5t124.5 49.5q36 0 68 -12l14 38h52l-24 -62q61 -50 61 -152v-148q0 -89 -46.5 -138.5t-124.5 -49.5q-38 0 -68 12l-14 -38h-52zM151 326v-138l77 206q-12 9 -28 9q-49 0 -49 -77zM200 97q49 0 49 77v137l-77 -205
q10 -9 28 -9zM303 725l-77 -161h-85l52 161h110z" />
    <glyph glyph-name="Scommaaccent" unicode="&#x218;" horiz-adv-x="441" 
d="M32 189v13l134 5v-21q0 -80 57 -80t57 80v17q0 33 -14 51.5t-50 32.5l-38 15q-84 33 -115.5 73t-31.5 124v18q0 195 184 195t184 -195v-20l-134 -5v24q0 41 -12 59t-38 18t-38 -18t-12 -59v-12q0 -38 14 -52.5t61 -34.5l26 -11q83 -36 115.5 -77t32.5 -121v-19
q0 -97 -49.5 -149t-141.5 -52t-141.5 52t-49.5 149zM296 -49l-57 -161h-81l32 161h106z" />
    <glyph glyph-name="scommaaccent" unicode="&#x219;" horiz-adv-x="370" 
d="M153 152v-15q0 -40 34 -40t34 40v5q0 21 -11.5 32.5t-43.5 23.5l-24 9q-62 24 -87.5 57.5t-25.5 97.5v13q0 60 39 98.5t112 38.5t112 -38.5t39 -98.5v-18l-122 -4v16q0 34 -29 34t-29 -34v-4q0 -24 14.5 -34.5t64.5 -30.5l26 -10q87 -33 87 -140v-18q0 -67 -42 -105.5
t-114 -38.5t-114 38.5t-42 105.5v15zM255 -49l-57 -161h-81l32 161h106z" />
    <glyph glyph-name="uni021A" unicode="&#x21a;" horiz-adv-x="402" 
d="M6 581v119h390v-119h-128v-581h-134v581h-128zM263 -49l-57 -161h-81l32 161h106z" />
    <glyph glyph-name="uni021B" unicode="&#x21b;" 
d="M9 391v109h48v142h122v-142h86v-109h-86v-224q0 -35 8.5 -46.5t32.5 -11.5h48v-109h-78q-71 0 -102 37t-31 123v231h-48zM227 -49l-57 -161h-81l32 161h106z" />
    <glyph glyph-name="dotlessj" unicode="&#x237;" horiz-adv-x="208" 
d="M165 500v-540q0 -93 -36.5 -132.5t-116.5 -39.5h-43v109h30q26 0 35 14t9 50v539h122z" />
    <glyph glyph-name="apostrophe" unicode="&#x2bc;" horiz-adv-x="288" 
d="M139 604h-56v126h123v-123q0 -57 -30.5 -90t-92.5 -35v56q29 4 40.5 18.5t15.5 47.5z" />
    <glyph glyph-name="circumflex" unicode="&#x2c6;" horiz-adv-x="288" 
d="M14 569l87 161h86l87 -161h-79l-51 76l-51 -76h-79z" />
    <glyph glyph-name="caron" unicode="&#x2c7;" horiz-adv-x="288" 
d="M101 569l-87 161h79l51 -76l51 76h79l-87 -161h-86z" />
    <glyph glyph-name="uni02C9" unicode="&#x2c9;" horiz-adv-x="288" 
d="M25 606v82h238v-82h-238z" />
    <glyph glyph-name="breve" unicode="&#x2d8;" horiz-adv-x="288" 
d="M144 570q-118 0 -126 140l83 9q2 -37 11.5 -54t31.5 -17t31.5 17t11.5 54l83 -9q-8 -140 -126 -140z" />
    <glyph glyph-name="dotaccent" unicode="&#x2d9;" horiz-adv-x="288" 
d="M196 703v-110h-104v110h104z" />
    <glyph glyph-name="ring" unicode="&#x2da;" horiz-adv-x="288" 
d="M236 646q0 -41 -27 -64.5t-65 -23.5t-65 23.5t-27 64.5t27 64.5t65 23.5t65 -23.5t27 -64.5zM117 646q0 -14 7.5 -23t19.5 -9t19.5 9t7.5 23t-7.5 23t-19.5 9t-19.5 -9t-7.5 -23z" />
    <glyph glyph-name="ogonek" unicode="&#x2db;" horiz-adv-x="288" 
d="M104 0h86q-51 -45 -51 -91v-4q0 -31 24 -31q15 0 28 13l55 -62q-39 -44 -100 -44q-48 0 -76 26.5t-28 71.5v7q0 30 16.5 62t45.5 52z" />
    <glyph glyph-name="tilde" unicode="&#x2dc;" horiz-adv-x="288" 
d="M183 670q19 0 20 41l75 -7q-3 -64 -25 -94.5t-56 -30.5t-59 25q-20 20 -33 20q-19 0 -20 -41l-75 7q3 64 25 94.5t56 30.5t59 -25q20 -20 33 -20z" />
    <glyph glyph-name="hungarumlaut" unicode="&#x2dd;" horiz-adv-x="288" 
d="M148 730l-72 -161h-79l47 161h104zM292 730l-82 -161h-82l59 161h105z" />
    <glyph glyph-name="gravecomb" unicode="&#x300;" horiz-adv-x="0" 
d="M-261 569l-77 161h110l52 -161h-85z" />
    <glyph glyph-name="acutecomb" unicode="&#x301;" horiz-adv-x="0" 
d="M-162 730l-77 -161h-85l52 161h110z" />
    <glyph glyph-name="uni0302" unicode="&#x302;" horiz-adv-x="0" 
d="M-377 569l87 161h86l87 -161h-79l-51 76l-51 -76h-79z" />
    <glyph glyph-name="tildecomb" unicode="&#x303;" horiz-adv-x="0" 
d="M-211 670q19 0 20 41l75 -7q-3 -64 -25 -94.5t-56 -30.5t-59 25q-20 20 -33 20q-19 0 -20 -41l-75 7q3 64 25 94.5t56 30.5t59 -25q20 -20 33 -20z" />
    <glyph glyph-name="uni0304" unicode="&#x304;" horiz-adv-x="0" 
d="M-369 607v82h238v-82h-238z" />
    <glyph glyph-name="uni0306" unicode="&#x306;" horiz-adv-x="0" 
d="M-250 570q-118 0 -126 140l83 9q2 -37 11.5 -54t31.5 -17t31.5 17t11.5 54l83 -9q-8 -140 -126 -140z" />
    <glyph glyph-name="uni0307" unicode="&#x307;" horiz-adv-x="0" 
d="M-198 703v-110h-104v110h104z" />
    <glyph glyph-name="uni0308" unicode="&#x308;" horiz-adv-x="0" 
d="M-244 701v-107h-100v107h100zM-90 701v-107h-100v107h100z" />
    <glyph glyph-name="uni030A" unicode="&#x30a;" horiz-adv-x="0" 
d="M-158 646q0 -41 -27 -64.5t-65 -23.5t-65 23.5t-27 64.5t27 64.5t65 23.5t65 -23.5t27 -64.5zM-277 646q0 -14 7.5 -23t19.5 -9t19.5 9t7.5 23t-7.5 23t-19.5 9t-19.5 -9t-7.5 -23z" />
    <glyph glyph-name="uni030C" unicode="&#x30c;" horiz-adv-x="0" 
d="M-293 569l-87 161h79l51 -76l51 76h79l-87 -161h-86z" />
    <glyph glyph-name="uni0327" unicode="&#x327;" horiz-adv-x="0" 
d="M-339 -204l43 64q15 -13 32 -13q22 0 22 21q0 28 -43 38l-6 9l26 85h83l-17 -55q56 -30 56 -84v-6q0 -43 -27.5 -68t-74.5 -25q-58 0 -94 34z" />
    <glyph glyph-name="uni03A9" unicode="&#x3a9;" horiz-adv-x="476" 
d="M238 712q93 0 147 -58t54 -168v-204q0 -122 -62 -163h61v-119h-177v109q26 15 35 48t9 105v213q0 63 -16.5 90.5t-50.5 27.5t-50.5 -27.5t-16.5 -90.5v-213q0 -72 9 -105t35 -48v-109h-177v119h61q-62 41 -62 163v204q0 110 54 168t147 58z" />
    <glyph glyph-name="uni0400" unicode="&#x400;" horiz-adv-x="414" 
d="M44 0v700h344v-119h-210v-162h180v-119h-180v-181h210v-119h-344zM196 763l-77 161h110l52 -161h-85z" />
    <glyph glyph-name="afii10023" unicode="&#x401;" horiz-adv-x="414" 
d="M44 0v700h344v-119h-210v-162h180v-119h-180v-181h210v-119h-344zM192 895v-107h-100v107h100zM346 895v-107h-100v107h100z" />
    <glyph glyph-name="afii10051" unicode="&#x402;" horiz-adv-x="536" 
d="M374 30v240q0 75 -50 75q-31 0 -56 -20v-325h-134v581h-128v119h390v-119h-128v-151q45 32 97 32q143 0 143 -200v-238q0 -87 -35.5 -124.5t-111.5 -37.5h-49v119h23q22 0 30.5 11t8.5 38z" />
    <glyph glyph-name="afii10052" unicode="&#x403;" horiz-adv-x="409" 
d="M44 0v700h362v-119h-228v-581h-134zM320 924l-77 -161h-85l52 161h110z" />
    <glyph glyph-name="afii10053" unicode="&#x404;" horiz-adv-x="459" 
d="M167 409h108v-119h-108v-65q0 -63 16.5 -90.5t50.5 -27.5t50.5 27.5t16.5 90.5v19l134 -5v-25q0 -110 -54 -168t-147 -58t-147 58t-54 168v272q0 110 54 168t147 58t147 -58t54 -168v-25l-134 -5v19q0 63 -16.5 90.5t-50.5 27.5t-50.5 -27.5t-16.5 -90.5v-66z" />
    <glyph glyph-name="afii10054" unicode="&#x405;" horiz-adv-x="441" 
d="M32 189v13l134 5v-21q0 -80 57 -80t57 80v17q0 33 -14 51.5t-50 32.5l-38 15q-84 33 -115.5 73t-31.5 124v18q0 195 184 195t184 -195v-20l-134 -5v24q0 41 -12 59t-38 18t-38 -18t-12 -59v-12q0 -38 14 -52.5t61 -34.5l26 -11q83 -36 115.5 -77t32.5 -121v-19
q0 -97 -49.5 -149t-141.5 -52t-141.5 52t-49.5 149z" />
    <glyph glyph-name="afii10055" unicode="&#x406;" horiz-adv-x="222" 
d="M178 700v-700h-134v700h134z" />
    <glyph glyph-name="afii10056" unicode="&#x407;" horiz-adv-x="222" 
d="M178 700v-700h-134v700h134zM84 895v-107h-100v107h100zM238 895v-107h-100v107h100z" />
    <glyph glyph-name="afii10057" unicode="&#x408;" horiz-adv-x="421" 
d="M144 214v-16q0 -92 51 -92t51 92v502h135v-509q0 -96 -49 -149.5t-137 -53.5t-137 53.5t-49 149.5v18z" />
    <glyph glyph-name="afii10058" unicode="&#x409;" horiz-adv-x="732" 
d="M708 226v-26q0 -96 -48.5 -148t-139.5 -52h-189v581h-120v-421q0 -95 -39 -133.5t-126 -38.5h-42v119h33q22 0 31 13t9 46v534h388v-275h55q91 0 139.5 -52t48.5 -147zM574 205v15q0 87 -71 87h-38v-189h38q71 0 71 87z" />
    <glyph glyph-name="afii10059" unicode="&#x40a;" horiz-adv-x="696" 
d="M295 0v300h-116v-300h-135v700h135v-281h116v281h135v-275h55q91 0 139.5 -52t48.5 -147v-26q0 -96 -48.5 -148t-139.5 -52h-190zM539 205v15q0 87 -71 87h-38v-189h38q71 0 71 87z" />
    <glyph glyph-name="afii10060" unicode="&#x40b;" horiz-adv-x="536" 
d="M508 0h-134v270q0 75 -50 75q-31 0 -56 -20v-325h-134v581h-128v119h390v-119h-128v-151q45 32 97 32q143 0 143 -200v-262z" />
    <glyph glyph-name="afii10061" unicode="&#x40c;" horiz-adv-x="464" 
d="M418 700v-68q0 -84 -19 -142t-68 -109l133 -381h-141l-94 287l-51 -47v-240h-134v700h134v-293l35 33q41 40 56 81.5t15 112.5v66h134zM338 924l-77 -161h-85l52 161h110z" />
    <glyph glyph-name="uni040D" unicode="&#x40d;" horiz-adv-x="488" 
d="M160 0l154 406v-406h130v700h-116l-154 -406v406h-130v-700h116zM228 763l-77 161h110l52 -161h-85z" />
    <glyph glyph-name="afii10062" unicode="&#x40e;" horiz-adv-x="422" 
d="M130 162l22 76l-145 462h136l68 -261l68 261h137l-161 -573q-19 -70 -55 -98.5t-91 -28.5h-60v118h31q38 0 50 44zM210 762q-118 0 -126 140l83 9q2 -37 11.5 -54t31.5 -17t31.5 17t11.5 54l83 -9q-8 -140 -126 -140z" />
    <glyph glyph-name="afii10145" unicode="&#x40f;" horiz-adv-x="471" 
d="M293 119v581h134v-700h-124v-120h-135v120h-124v700h134v-581h115z" />
    <glyph glyph-name="afii10017" unicode="&#x410;" horiz-adv-x="469" 
d="M329 0l-24 125h-141l-24 -125h-138l163 700h139l163 -700h-138zM234 490l-47 -246h95z" />
    <glyph glyph-name="afii10018" unicode="&#x411;" horiz-adv-x="447" 
d="M421 226v-26q0 -96 -48.5 -148t-139.5 -52h-189v700h327v-119h-193v-156h55q91 0 139.5 -52t48.5 -147zM287 205v15q0 87 -71 87h-38v-189h38q71 0 71 87z" />
    <glyph glyph-name="afii10019" unicode="&#x412;" horiz-adv-x="448" 
d="M230 0h-186v700h182q88 0 136 -48t48 -147q0 -51 -19 -88t-51 -52q84 -39 84 -158q0 -102 -50 -154.5t-144 -52.5zM209 584h-31v-168h31q67 0 67 84t-67 84zM219 302h-41v-186h41q71 0 71 93t-71 93z" />
    <glyph glyph-name="afii10020" unicode="&#x413;" horiz-adv-x="409" 
d="M44 0v700h362v-119h-228v-581h-134z" />
    <glyph glyph-name="afii10021" unicode="&#x414;" horiz-adv-x="488" 
d="M477 119v-239h-134v120h-205v-120h-134v239h53q27 128 27 308v273h338v-581h55zM194 119h94v462h-69v-163q0 -154 -25 -299z" />
    <glyph glyph-name="afii10022" unicode="&#x415;" horiz-adv-x="414" 
d="M44 0v700h344v-119h-210v-162h180v-119h-180v-181h210v-119h-344z" />
    <glyph glyph-name="afii10024" unicode="&#x416;" horiz-adv-x="646" 
d="M256 430v270h134v-270l25 26q34 35 46 78.5t12 125.5v40h134v-40q0 -109 -17 -167.5t-70 -117.5l126 -375h-137l-88 285l-31 -31v-254h-134v254l-31 31l-88 -285h-137l126 375q-53 59 -70 117.5t-17 167.5v40h134v-40q0 -82 12 -125.5t46 -78.5z" />
    <glyph glyph-name="afii10025" unicode="&#x417;" horiz-adv-x="428" 
d="M162 502l-130 5v26q0 85 49 132t133 47t133 -47t49 -132v-37q0 -100 -77 -130q39 -13 63 -51t24 -93v-40q0 -91 -52 -142.5t-140 -51.5t-140 51.5t-52 142.5v22l130 5v-18q0 -91 62 -91t62 91v20q0 51 -20 74.5t-63 23.5h-37v113h37q73 0 73 84v19q0 74 -52 74t-52 -74
v-23z" />
    <glyph glyph-name="afii10026" unicode="&#x418;" horiz-adv-x="488" 
d="M314 406l-154 -406h-116v700h130v-406l154 406h116v-700h-130v406z" />
    <glyph glyph-name="afii10027" unicode="&#x419;" horiz-adv-x="488" 
d="M314 406l-154 -406h-116v700h130v-406l154 406h116v-700h-130v406zM244 762q-118 0 -126 140l83 9q2 -37 11.5 -54t31.5 -17t31.5 17t11.5 54l83 -9q-8 -140 -126 -140z" />
    <glyph glyph-name="afii10028" unicode="&#x41a;" horiz-adv-x="464" 
d="M418 700v-68q0 -84 -19 -142t-68 -109l133 -381h-141l-94 287l-51 -47v-240h-134v700h134v-293l35 33q41 40 56 81.5t15 112.5v66h134z" />
    <glyph glyph-name="afii10029" unicode="&#x41b;" horiz-adv-x="498" 
d="M77 165v535h377v-700h-135v581h-108v-421q0 -95 -39 -133.5t-126 -38.5h-42v118h33q22 0 31 13t9 46z" />
    <glyph glyph-name="afii10030" unicode="&#x41c;" horiz-adv-x="576" 
d="M246 172l-72 203v-375h-130v700h111l133 -367l133 367h111v-700h-130v375l-72 -203h-84z" />
    <glyph glyph-name="afii10031" unicode="&#x41d;" horiz-adv-x="474" 
d="M295 0v300h-116v-300h-135v700h135v-281h116v281h135v-700h-135z" />
    <glyph glyph-name="afii10032" unicode="&#x41e;" horiz-adv-x="468" 
d="M301 225v250q0 63 -16.5 90.5t-50.5 27.5t-50.5 -27.5t-16.5 -90.5v-250q0 -63 16.5 -90.5t50.5 -27.5t50.5 27.5t16.5 90.5zM435 486v-272q0 -110 -54 -168t-147 -58t-147 58t-54 168v272q0 110 54 168t147 58t147 -58t54 -168z" />
    <glyph glyph-name="afii10033" unicode="&#x41f;" horiz-adv-x="471" 
d="M293 0v581h-115v-581h-134v700h383v-700h-134z" />
    <glyph glyph-name="afii10034" unicode="&#x420;" horiz-adv-x="450" 
d="M227 241h-49v-241h-134v700h183q86 0 141.5 -57t55.5 -173q0 -115 -55.5 -172t-141.5 -57zM290 470q0 111 -82 111h-30v-221h30q82 0 82 110z" />
    <glyph glyph-name="afii10035" unicode="&#x421;" horiz-adv-x="459" 
d="M435 239v-25q0 -110 -54 -168t-147 -58t-147 58t-54 168v272q0 110 54 168t147 58t147 -58t54 -168v-25l-134 -5v19q0 63 -16.5 90.5t-50.5 27.5t-50.5 -27.5t-16.5 -90.5v-250q0 -63 16.5 -90.5t50.5 -27.5t50.5 27.5t16.5 90.5v19z" />
    <glyph glyph-name="afii10036" unicode="&#x422;" horiz-adv-x="402" 
d="M6 581v119h390v-119h-128v-581h-134v581h-128z" />
    <glyph glyph-name="afii10037" unicode="&#x423;" horiz-adv-x="422" 
d="M130 162l22 76l-145 462h136l68 -261l68 261h137l-161 -573q-19 -70 -55 -98.5t-91 -28.5h-60v118h31q38 0 50 44z" />
    <glyph glyph-name="afii10038" unicode="&#x424;" horiz-adv-x="584" 
d="M153 381v-62q0 -66 16 -91.5t52 -25.5h9v296h-9q-36 0 -52 -25.5t-16 -91.5zM26 303v94q0 107 50 163.5t141 56.5h13v83h123v-83h13q91 0 141 -56.5t50 -163.5v-94q0 -107 -50 -163.5t-141 -56.5h-13v-83h-123v83h-13q-91 0 -141 56.5t-50 163.5zM430 319v62
q0 66 -16 91.5t-52 25.5h-9v-296h9q36 0 52 25.5t16 91.5z" />
    <glyph glyph-name="afii10039" unicode="&#x425;" horiz-adv-x="464" 
d="M156 700l76 -224l76 224h139l-121 -339l131 -361h-139l-86 247l-86 -247h-139l131 361l-121 339h139z" />
    <glyph glyph-name="afii10040" unicode="&#x426;" horiz-adv-x="493" 
d="M482 118v-238h-135v120h-303v700h134v-582h114v582h134v-582h56z" />
    <glyph glyph-name="afii10041" unicode="&#x427;" horiz-adv-x="453" 
d="M167 700v-269q0 -40 12 -57.5t39 -17.5q29 0 57 21v323h134v-700h-134v269q-42 -31 -99 -31q-70 0 -107 47t-37 133v282h135z" />
    <glyph glyph-name="afii10042" unicode="&#x428;" horiz-adv-x="712" 
d="M534 119v581h134v-700h-624v700h134v-581h111v581h134v-581h111z" />
    <glyph glyph-name="afii10043" unicode="&#x429;" horiz-adv-x="735" 
d="M534 119v581h134v-581h56v-239h-135v120h-545v700h134v-581h111v581h134v-581h111z" />
    <glyph glyph-name="afii10044" unicode="&#x42a;" horiz-adv-x="535" 
d="M6 581v119h262v-275h55q91 0 139.5 -52t48.5 -147v-26q0 -96 -48.5 -148t-139.5 -52h-189v581h-128zM377 205v15q0 87 -71 87h-38v-189h38q71 0 71 87z" />
    <glyph glyph-name="afii10045" unicode="&#x42b;" horiz-adv-x="653" 
d="M421 226v-26q0 -96 -48.5 -148t-139.5 -52h-189v700h134v-275h55q91 0 139.5 -52t48.5 -147zM287 205v15q0 87 -71 87h-38v-189h38q71 0 71 87zM609 700v-700h-134v700h134z" />
    <glyph glyph-name="afii10046" unicode="&#x42c;" horiz-adv-x="444" 
d="M421 226v-26q0 -96 -48.5 -148t-139.5 -52h-189v700h134v-275h55q91 0 139.5 -52t48.5 -147zM287 205v15q0 87 -71 87h-38v-189h38q71 0 71 87z" />
    <glyph glyph-name="afii10047" unicode="&#x42d;" horiz-adv-x="459" 
d="M184 409h108v66q0 63 -16.5 90.5t-50.5 27.5t-50.5 -27.5t-16.5 -90.5v-19l-134 5v25q0 110 54 168t147 58t147 -58t54 -168v-272q0 -110 -54 -168t-147 -58t-147 58t-54 168v25l134 5v-19q0 -63 16.5 -90.5t50.5 -27.5t50.5 27.5t16.5 90.5v65h-108v119z" />
    <glyph glyph-name="afii10048" unicode="&#x42e;" horiz-adv-x="662" 
d="M629 486v-272q0 -110 -54 -168t-147 -58t-147 58t-54 168v77h-48v-291h-135v700h135v-290h48v76q0 110 54 168t147 58t147 -58t54 -168zM495 225v250q0 63 -16.5 90.5t-50.5 27.5t-50.5 -27.5t-16.5 -90.5v-250q0 -63 16.5 -90.5t50.5 -27.5t50.5 27.5t16.5 90.5z" />
    <glyph glyph-name="afii10049" unicode="&#x42f;" horiz-adv-x="456" 
d="M10 0l103 290q-81 55 -81 189q0 112 55.5 166.5t141.5 54.5h183v-700h-134v258h-46l-81 -258h-141zM166 479q0 -103 82 -103h30v205h-30q-82 0 -82 -102z" />
    <glyph glyph-name="afii10065" unicode="&#x430;" horiz-adv-x="397" 
d="M188 89q33 0 49 45v69h-45q-47 0 -47 -56v-12q0 -46 43 -46zM43 351v6q0 72 41.5 113.5t116.5 41.5q77 0 117.5 -42t40.5 -118v-352h-122v38q-27 -50 -90 -50q-53 0 -87 37.5t-34 106.5v15q0 72 42 111.5t119 39.5h50v51q0 54 -36 54q-35 0 -35 -58z" />
    <glyph glyph-name="afii10066" unicode="&#x431;" horiz-adv-x="410" 
d="M253 181v136q0 45 -11 62.5t-35 17.5q-32 0 -46 -32v-184q0 -44 10.5 -63.5t35.5 -19.5t35.5 19.5t10.5 63.5zM161 506v-35q9 17 31 29t48 12q65 0 103 -46.5t38 -134.5v-170q0 -80 -48 -126.5t-126 -46.5t-126 46.5t-48 126.5v314q0 93 35 138t114 65l138 35l24 -105
l-124 -31q-31 -8 -45 -24.5t-14 -46.5z" />
    <glyph glyph-name="afii10067" unicode="&#x432;" horiz-adv-x="386" 
d="M221 0h-182v500h172q66 0 103 -38.5t37 -99.5v-11q0 -64 -47 -90q57 -25 57 -98v-23q0 -63 -36.5 -101.5t-103.5 -38.5zM232 345v10q0 18 -10 29t-27 11h-37v-90h37q17 0 27 11t10 29zM158 209v-104h42q19 0 30.5 12t11.5 33v13q0 21 -11.5 33.5t-30.5 12.5h-42z" />
    <glyph glyph-name="afii10068" unicode="&#x433;" horiz-adv-x="325" 
d="M161 391v-391h-122v500h276v-109h-154z" />
    <glyph glyph-name="afii10069" unicode="&#x434;" horiz-adv-x="397" 
d="M391 108v-218h-122v110h-145v-110h-122v218h45q17 100 17 225v167h281v-392h46zM164 108h65v284h-49v-65q0 -126 -16 -219z" />
    <glyph glyph-name="afii10070" unicode="&#x435;" horiz-adv-x="400" 
d="M371 324v-118h-220v-32q0 -77 49 -77q41 0 48 53l121 -6q-8 -75 -53 -115.5t-116 -40.5q-78 0 -124.5 49.5t-46.5 138.5v148q0 89 46.5 138.5t124.5 49.5t124.5 -49.5t46.5 -138.5zM151 326v-22h98v22q0 77 -49 77t-49 -77z" />
    <glyph glyph-name="afii10072" unicode="&#x436;" horiz-adv-x="533" 
d="M207 0v155l-33 30l-54 -185h-119l87 263q-29 35 -39.5 80.5t-10.5 122.5v34h119v-34q0 -79 7 -105.5t31 -55.5l12 -14v209h119v-209l12 14q24 29 31 55.5t7 105.5v34h119v-34q0 -77 -10.5 -122.5t-39.5 -80.5l87 -263h-119l-54 185l-33 -30v-155h-119z" />
    <glyph glyph-name="afii10073" unicode="&#x437;" horiz-adv-x="367" 
d="M32 354v27q0 59 41.5 95t107.5 36t107.5 -36t41.5 -95v-33q0 -66 -49 -88q61 -22 61 -97v-34q0 -63 -42.5 -102t-117.5 -39t-117.5 39t-42.5 102v29l119 5v-24q0 -49 41 -49t41 49v23q0 45 -49 45h-44v101h42q39 0 39 44v21q0 37 -30 37t-30 -37v-24z" />
    <glyph glyph-name="afii10074" unicode="&#x438;" horiz-adv-x="409" 
d="M251 262l-108 -262h-104v500h119v-262l108 262h104v-500h-119v262z" />
    <glyph glyph-name="afii10075" unicode="&#x439;" horiz-adv-x="409" 
d="M251 262l-108 -262h-104v500h119v-262l108 262h104v-500h-119v262zM204 565q-118 0 -126 140l83 9q2 -37 11.5 -54t31.5 -17t31.5 17t11.5 54l83 -9q-8 -140 -126 -140z" />
    <glyph glyph-name="afii10076" unicode="&#x43a;" horiz-adv-x="391" 
d="M357 500v-23q0 -74 -14 -117.5t-54 -82.5l101 -277h-126l-65 194l-38 -34v-160h-122v500h122v-189l25 24q30 29 39.5 56t9.5 77v32h122z" />
    <glyph glyph-name="afii10077" unicode="&#x43b;" horiz-adv-x="430" 
d="M190 391v-232q0 -93 -36.5 -132t-116.5 -39h-35v108h21q26 0 35.5 14t9.5 50v340h323v-500h-122v391h-79z" />
    <glyph glyph-name="afii10078" unicode="&#x43c;" horiz-adv-x="470" 
d="M260 107h-50l-54 144v-251h-117v500h102l94 -251l94 251h102v-500h-117v251z" />
    <glyph glyph-name="afii10079" unicode="&#x43d;" horiz-adv-x="399" 
d="M360 500v-500h-122v202h-77v-202h-122v500h122v-190h77v190h122z" />
    <glyph glyph-name="afii10080" unicode="&#x43e;" horiz-adv-x="400" 
d="M151 326v-152q0 -77 49 -77t49 77v152q0 77 -49 77t-49 -77zM29 176v148q0 89 46.5 138.5t124.5 49.5t124.5 -49.5t46.5 -138.5v-148q0 -89 -46.5 -138.5t-124.5 -49.5t-124.5 49.5t-46.5 138.5z" />
    <glyph glyph-name="afii10081" unicode="&#x43f;" horiz-adv-x="403" 
d="M363 500v-500h-122v391h-80v-391h-122v500h324z" />
    <glyph glyph-name="afii10082" unicode="&#x440;" horiz-adv-x="410" 
d="M162 365v-230q14 -38 48 -38q49 0 49 78v150q0 78 -49 78q-34 0 -48 -38zM381 335v-169q0 -91 -36.5 -134.5t-95.5 -43.5q-63 0 -87 49v-255h-122v718h122v-37q24 49 87 49q59 0 95.5 -43t36.5 -134z" />
    <glyph glyph-name="afii10083" unicode="&#x441;" horiz-adv-x="393" 
d="M371 181v-5q0 -89 -46.5 -138.5t-124.5 -49.5t-124.5 49.5t-46.5 138.5v148q0 89 46.5 138.5t124.5 49.5t124.5 -49.5t46.5 -138.5v-5l-122 -5v12q0 77 -49 77t-49 -77v-152q0 -77 49 -77t49 77v12z" />
    <glyph glyph-name="afii10084" unicode="&#x442;" horiz-adv-x="346" 
d="M6 391v109h334v-109h-106v-391h-122v391h-106z" />
    <glyph glyph-name="afii10085" unicode="&#x443;" horiz-adv-x="386" 
d="M120 -52l17 66l-134 486h125l66 -283l62 283h125l-142 -559q-22 -88 -54.5 -120t-98.5 -32h-50v109h40q17 0 27 11t17 39z" />
    <glyph glyph-name="afii10086" unicode="&#x444;" horiz-adv-x="620" 
d="M29 166v169q0 91 36.5 134t95.5 43q63 0 87 -49v249h122v-249q24 49 87 49q59 0 95.5 -43t36.5 -134v-169q0 -91 -36.5 -134.5t-95.5 -43.5q-63 0 -87 49v-255h-122v255q-24 -49 -87 -49q-59 0 -95.5 43.5t-36.5 134.5zM248 135v230q-14 38 -48 38q-49 0 -49 -78v-150
q0 -78 49 -78q34 0 48 38zM370 365v-230q14 -38 48 -38q49 0 49 78v150q0 78 -49 78q-34 0 -48 -38z" />
    <glyph glyph-name="afii10087" unicode="&#x445;" horiz-adv-x="368" 
d="M233 0l-49 158l-49 -158h-131l98 255l-92 245h129l45 -149l45 149h129l-92 -245l98 -255h-131z" />
    <glyph glyph-name="afii10088" unicode="&#x446;" horiz-adv-x="416" 
d="M363 500v-392h47v-218h-122v110h-249v500h122v-392h80v392h122z" />
    <glyph glyph-name="afii10089" unicode="&#x447;" horiz-adv-x="389" 
d="M153 500v-177q0 -41 8.5 -57.5t29.5 -16.5q22 0 36 14v237h122v-500h-122v158q-28 -17 -62 -17q-134 0 -134 172v187h122z" />
    <glyph glyph-name="afii10090" unicode="&#x448;" horiz-adv-x="590" 
d="M550 500v-500h-510v500h122v-392h72v392h122v-392h72v392h122z" />
    <glyph glyph-name="afii10091" unicode="&#x449;" horiz-adv-x="604" 
d="M474 -110v110h-434v500h122v-392h72v392h122v-392h72v392h122v-392h46v-218h-122z" />
    <glyph glyph-name="afii10092" unicode="&#x44a;" horiz-adv-x="438" 
d="M230 332h49q64 0 103.5 -41t39.5 -115v-20q0 -75 -39 -115.5t-104 -40.5h-171v391h-100v109h222v-168zM230 109h31q39 0 39 52v9q0 53 -39 53h-31v-114z" />
    <glyph glyph-name="afii10093" unicode="&#x44b;" horiz-adv-x="538" 
d="M387 0v500h122v-500h-122zM233 175v-18q0 -52 -43 -52h-29v122h29q43 0 43 -52zM353 156v20q0 74 -39.5 115t-103.5 41h-49v168h-122v-500h171q64 0 103.5 41t39.5 115z" />
    <glyph glyph-name="afii10094" unicode="&#x44c;" horiz-adv-x="369" 
d="M233 157v18q0 52 -43 52h-29v-122h29q43 0 43 52zM353 176v-20q0 -74 -39.5 -115t-103.5 -41h-171v500h122v-168h49q64 0 103.5 -41t39.5 -115z" />
    <glyph glyph-name="afii10095" unicode="&#x44d;" horiz-adv-x="393" 
d="M22 176v5l122 5v-12q0 -77 49 -77t49 77v23h-72v104h72v25q0 77 -49 77t-49 -77v-12l-122 5v5q0 89 46.5 138.5t124.5 49.5t124.5 -49.5t46.5 -138.5v-148q0 -89 -46.5 -138.5t-124.5 -49.5t-124.5 49.5t-46.5 138.5z" />
    <glyph glyph-name="afii10096" unicode="&#x44e;" horiz-adv-x="565" 
d="M194 176v19h-33v-195h-122v500h122v-197h33v21q0 89 46.5 138.5t124.5 49.5t124.5 -49.5t46.5 -138.5v-148q0 -89 -46.5 -138.5t-124.5 -49.5t-124.5 49.5t-46.5 138.5zM316 326v-152q0 -77 49 -77t49 77v152q0 77 -49 77t-49 -77z" />
    <glyph glyph-name="afii10097" unicode="&#x44f;" horiz-adv-x="379" 
d="M24 337q0 77 40.5 120t111.5 43h163v-500h-122v174h-24l-67 -174h-117l80 197q-65 40 -65 140zM143 337q0 -58 43 -58h31v115h-31q-43 0 -43 -57z" />
    <glyph glyph-name="uni0450" unicode="&#x450;" horiz-adv-x="400" 
d="M371 324v-118h-220v-32q0 -77 49 -77q41 0 48 53l121 -6q-8 -75 -53 -115.5t-116 -40.5q-78 0 -124.5 49.5t-46.5 138.5v148q0 89 46.5 138.5t124.5 49.5t124.5 -49.5t46.5 -138.5zM151 326v-22h98v22q0 77 -49 77t-49 -77zM171 564l-77 161h110l52 -161h-85z" />
    <glyph glyph-name="afii10071" unicode="&#x451;" horiz-adv-x="400" 
d="M371 324v-118h-220v-32q0 -77 49 -77q41 0 48 53l121 -6q-8 -75 -53 -115.5t-116 -40.5q-78 0 -124.5 49.5t-46.5 138.5v148q0 89 46.5 138.5t124.5 49.5t124.5 -49.5t46.5 -138.5zM151 326v-22h98v22q0 77 -49 77t-49 -77zM171 696v-107h-100v107h100zM325 696v-107
h-100v107h100z" />
    <glyph glyph-name="afii10099" unicode="&#x452;" horiz-adv-x="417" 
d="M161 355v-355h-122v570h-44v85h44v57h122v-57h101v-85h-101v-114q27 56 93 56q62 0 94 -44t32 -125v-383q0 -93 -36.5 -132.5t-116.5 -39.5h-43v109h29q27 0 36 14t9 50v375q0 67 -46 67q-40 0 -51 -48z" />
    <glyph glyph-name="afii10100" unicode="&#x453;" horiz-adv-x="325" 
d="M161 391v-391h-122v500h276v-109h-154zM271 725l-77 -161h-85l52 161h110z" />
    <glyph glyph-name="afii10101" unicode="&#x454;" horiz-adv-x="393" 
d="M371 181v-5q0 -89 -46.5 -138.5t-124.5 -49.5t-124.5 49.5t-46.5 138.5v148q0 89 46.5 138.5t124.5 49.5t124.5 -49.5t46.5 -138.5v-5l-122 -5v12q0 77 -49 77t-49 -77v-25h72v-104h-72v-23q0 -77 49 -77t49 77v12z" />
    <glyph glyph-name="afii10102" unicode="&#x455;" horiz-adv-x="370" 
d="M153 152v-15q0 -40 34 -40t34 40v5q0 21 -11.5 32.5t-43.5 23.5l-24 9q-62 24 -87.5 57.5t-25.5 97.5v13q0 60 39 98.5t112 38.5t112 -38.5t39 -98.5v-18l-122 -4v16q0 34 -29 34t-29 -34v-4q0 -24 14.5 -34.5t64.5 -30.5l26 -10q87 -33 87 -140v-18q0 -67 -42 -105.5
t-114 -38.5t-114 38.5t-42 105.5v15z" />
    <glyph glyph-name="afii10103" unicode="&#x456;" horiz-adv-x="208" 
d="M43 0v500h122v-500h-122zM43 580v132h122v-132h-122z" />
    <glyph glyph-name="afii10104" unicode="&#x457;" horiz-adv-x="208" 
d="M43 0v500h122v-500h-122zM77 696v-107h-100v107h100zM231 696v-107h-100v107h100z" />
    <glyph glyph-name="afii10105" unicode="&#x458;" horiz-adv-x="208" 
d="M43 580v132h122v-132h-122zM165 500v-540q0 -93 -36.5 -132.5t-116.5 -39.5h-43v109h30q26 0 35 14t9 50v539h122z" />
    <glyph glyph-name="afii10106" unicode="&#x459;" horiz-adv-x="599" 
d="M391 332h49q64 0 103.5 -41t39.5 -115v-20q0 -75 -39 -115.5t-104 -40.5h-171v391h-79v-213q0 -105 -35 -147.5t-118 -42.5h-35v108h21q26 0 35.5 14t9.5 50v340h323v-168zM391 109h31q39 0 39 52v9q0 53 -39 53h-31v-114z" />
    <glyph glyph-name="afii10107" unicode="&#x45a;" horiz-adv-x="568" 
d="M552 176v-20q0 -74 -39.5 -115t-103.5 -41h-171v201h-77v-201h-122v500h122v-190h77v190h122v-168h49q64 0 103.5 -41t39.5 -115zM432 157v18q0 52 -43 52h-29v-122h29q43 0 43 52z" />
    <glyph glyph-name="afii10108" unicode="&#x45b;" horiz-adv-x="417" 
d="M161 355v-355h-122v570h-44v85h44v57h122v-57h101v-85h-101v-114q27 56 93 56q62 0 94 -44t32 -125v-343h-122v336q0 67 -46 67q-40 0 -51 -48z" />
    <glyph glyph-name="afii10109" unicode="&#x45c;" horiz-adv-x="391" 
d="M357 500v-23q0 -74 -14 -117.5t-54 -82.5l101 -277h-126l-65 194l-38 -34v-160h-122v500h122v-189l25 24q30 29 39.5 56t9.5 77v32h122zM289 725l-77 -161h-85l52 161h110z" />
    <glyph glyph-name="uni045D" unicode="&#x45d;" horiz-adv-x="409" 
d="M143 0l108 262v-262h119v500h-104l-108 -262v262h-119v-500h104zM180 564l-77 161h110l52 -161h-85z" />
    <glyph glyph-name="afii10110" unicode="&#x45e;" horiz-adv-x="386" 
d="M120 -52l17 66l-134 486h125l66 -283l62 283h125l-142 -559q-22 -88 -54.5 -120t-98.5 -32h-50v109h40q17 0 27 11t17 39zM192 565q-118 0 -126 140l83 9q2 -37 11.5 -54t31.5 -17t31.5 17t11.5 54l83 -9q-8 -140 -126 -140z" />
    <glyph glyph-name="afii10193" unicode="&#x45f;" horiz-adv-x="402" 
d="M363 500v-500h-101v-110h-122v110h-101v500h122v-392h80v392h122z" />
    <glyph glyph-name="afii10050" unicode="&#x490;" horiz-adv-x="409" 
d="M406 840v-259h-228v-581h-134v700h228v140h134z" />
    <glyph glyph-name="afii10098" unicode="&#x491;" horiz-adv-x="325" 
d="M193 500v108h122v-216h-153v-392h-123v500h154z" />
    <glyph glyph-name="Wgrave" unicode="&#x1e80;" horiz-adv-x="700" 
d="M487 261l72 439h134l-139 -700h-128l-76 450l-76 -450h-128l-139 700h134l72 -439l73 439h128zM323 763l-77 161h110l52 -161h-85z" />
    <glyph glyph-name="wgrave" unicode="&#x1e81;" horiz-adv-x="598" 
d="M245 500l-60 -291l-55 291h-127l117 -500h115l64 308l64 -308h115l117 500h-127l-55 -291l-60 291h-108zM268 564l-77 161h110l52 -161h-85z" />
    <glyph glyph-name="Wacute" unicode="&#x1e82;" horiz-adv-x="700" 
d="M487 261l72 439h134l-139 -700h-128l-76 450l-76 -450h-128l-139 700h134l72 -439l73 439h128zM454 924l-77 -161h-85l52 161h110z" />
    <glyph glyph-name="wacute" unicode="&#x1e83;" horiz-adv-x="598" 
d="M245 500l-60 -291l-55 291h-127l117 -500h115l64 308l64 -308h115l117 500h-127l-55 -291l-60 291h-108zM407 725l-77 -161h-85l52 161h110z" />
    <glyph glyph-name="Wdieresis" unicode="&#x1e84;" horiz-adv-x="700" 
d="M487 261l72 439h134l-139 -700h-128l-76 450l-76 -450h-128l-139 700h134l72 -439l73 439h128zM323 895v-107h-100v107h100zM477 895v-107h-100v107h100z" />
    <glyph glyph-name="wdieresis" unicode="&#x1e85;" horiz-adv-x="598" 
d="M245 500l-60 -291l-55 291h-127l117 -500h115l64 308l64 -308h115l117 500h-127l-55 -291l-60 291h-108zM272 696v-107h-100v107h100zM426 696v-107h-100v107h100z" />
    <glyph glyph-name="Ygrave" unicode="&#x1ef2;" horiz-adv-x="450" 
d="M158 0v318l-152 382h139l80 -237l80 237h139l-152 -382v-318h-134zM193 763l-77 161h110l52 -161h-85z" />
    <glyph glyph-name="ygrave" unicode="&#x1ef3;" horiz-adv-x="386" 
d="M120 -52l17 66l-134 486h125l66 -283l62 283h125l-142 -559q-22 -88 -54.5 -120t-98.5 -32h-50v109h40q17 0 27 11t17 39zM163 564l-77 161h110l52 -161h-85z" />
    <glyph glyph-name="thinspace" unicode="&#x2009;" horiz-adv-x="140" 
 />
    <glyph glyph-name="uni2010" unicode="&#x2010;" horiz-adv-x="314" 
d="M30 272v104h254v-104h-254z" />
    <glyph glyph-name="figuredash" unicode="&#x2012;" horiz-adv-x="426" 
d="M396 272h-366v108h366v-108z" />
    <glyph glyph-name="endash" unicode="&#x2013;" horiz-adv-x="366" 
d="M366 272h-366v108h366v-108z" />
    <glyph glyph-name="emdash" unicode="&#x2014;" horiz-adv-x="733" 
d="M733 272h-733v109h733v-109z" />
    <glyph glyph-name="afii00208" unicode="&#x2015;" horiz-adv-x="733" 
d="M660 272h-587v109h587v-109z" />
    <glyph glyph-name="uni2016" unicode="&#x2016;" horiz-adv-x="447" 
d="M86 -130v879h106v-879h-106zM255 -130v879h106v-879h-106z" />
    <glyph glyph-name="underscoredbl" unicode="&#x2017;" horiz-adv-x="539" 
d="M42 -238v91h455v-91h-455zM42 -111v87h455v-87h-455z" />
    <glyph glyph-name="quoteleft" unicode="&#x2018;" horiz-adv-x="202" 
d="M106 652h61v-138h-132v146q0 119 132 126v-60q-32 -2 -46.5 -17t-14.5 -47v-10z" />
    <glyph glyph-name="quoteright" unicode="&#x2019;" horiz-adv-x="202" 
d="M96 649h-61v138h132v-146q0 -119 -132 -126v60q32 2 46.5 17t14.5 47v10z" />
    <glyph glyph-name="quotesinglbase" unicode="&#x201a;" horiz-adv-x="202" 
d="M96 0h-61v138h132v-146q0 -119 -132 -126v60q32 2 46.5 17t14.5 47v10z" />
    <glyph glyph-name="quotereversed" unicode="&#x201b;" horiz-adv-x="202" 
d="M167 649h-61v-10q0 -32 14.5 -47t46.5 -17v-60q-132 7 -132 126v146h132v-138z" />
    <glyph glyph-name="quotedblleft" unicode="&#x201c;" horiz-adv-x="376" 
d="M280 652h61v-138h-132v146q0 119 132 126v-60q-32 -2 -46.5 -17t-14.5 -47v-10zM106 652h61v-138h-132v146q0 119 132 126v-60q-32 -2 -46.5 -17t-14.5 -47v-10z" />
    <glyph glyph-name="quotedblright" unicode="&#x201d;" horiz-adv-x="376" 
d="M270 648h-61v138h132v-146q0 -119 -132 -126v60q32 2 46.5 17t14.5 47v10zM96 648h-61v138h132v-146q0 -119 -132 -126v60q32 2 46.5 17t14.5 47v10z" />
    <glyph glyph-name="quotedblbase" unicode="&#x201e;" horiz-adv-x="376" 
d="M96 0h-61v138h132v-146q0 -119 -132 -126v60q32 2 46.5 17t14.5 47v10zM270 0h-61v138h132v-146q0 -119 -132 -126v60q32 2 46.5 17t14.5 47v10z" />
    <glyph glyph-name="uni201F" unicode="&#x201f;" horiz-adv-x="376" 
d="M167 648h-61v-10q0 -32 14.5 -47t46.5 -17v-60q-132 7 -132 126v146h132v-138zM341 648h-61v-10q0 -32 14.5 -47t46.5 -17v-60q-132 7 -132 126v146h132v-138z" />
    <glyph glyph-name="dagger" unicode="&#x2020;" horiz-adv-x="422" 
d="M149 -131v601h-106v110h106v168h123v-168h106v-110h-106v-601h-123z" />
    <glyph glyph-name="daggerdbl" unicode="&#x2021;" horiz-adv-x="422" 
d="M43 37v110h106v323h-106v110h106v168h123v-168h106v-110h-106v-323h106v-110h-106v-168h-123v168h-106z" />
    <glyph glyph-name="bullet" unicode="&#x2022;" horiz-adv-x="298" 
d="M30 327q0 49 34.5 83.5t84.5 34.5t84.5 -34.5t34.5 -83.5t-34.5 -83.5t-84.5 -34.5t-84.5 34.5t-34.5 83.5z" />
    <glyph glyph-name="onedotenleader" unicode="&#x2024;" horiz-adv-x="202" 
d="M167 138v-138h-132v138h132z" />
    <glyph glyph-name="twodotenleader" unicode="&#x2025;" horiz-adv-x="404" 
d="M167 138v-138h-132v138h132zM369 138v-138h-132v138h132z" />
    <glyph glyph-name="ellipsis" unicode="&#x2026;" horiz-adv-x="606" 
d="M167 138v-138h-132v138h132zM571 138v-138h-132v138h132zM369 138v-138h-132v138h132z" />
    <glyph glyph-name="perthousand" unicode="&#x2030;" horiz-adv-x="912" 
d="M174 472v103q0 48 -23 48t-23 -48v-103q0 -48 23 -48t23 48zM268 577v-107q0 -63 -29.5 -99t-87.5 -36t-87.5 36t-29.5 99v107q0 63 29.5 99t87.5 36t87.5 -36t29.5 -99zM473 228v-103q0 -48 23 -48t23 48v103q0 48 -23 48t-23 -48zM475 700l-214 -700h-89l214 700h89z
M379 123v107q0 63 29.5 99t87.5 36t87.5 -36t29.5 -99v-107q0 -63 -29.5 -99t-87.5 -36t-87.5 36t-29.5 99zM738 228v-103q0 -48 23 -48t23 48v103q0 48 -23 48t-23 -48zM644 123v107q0 63 29.5 99t87.5 36t87.5 -36t29.5 -99v-107q0 -63 -29.5 -99t-87.5 -36t-87.5 36
t-29.5 99z" />
    <glyph glyph-name="minute" unicode="&#x2032;" horiz-adv-x="193" 
d="M22 465l37 235h112l-62 -235h-87z" />
    <glyph glyph-name="second" unicode="&#x2033;" horiz-adv-x="347" 
d="M22 465l37 235h112l-62 -235h-87zM176 465l37 235h112l-62 -235h-87z" />
    <glyph glyph-name="guilsinglleft" unicode="&#x2039;" horiz-adv-x="209" 
d="M23 344l163 133v-105l-77 -60l77 -60v-105l-163 133v64z" />
    <glyph glyph-name="guilsinglright" unicode="&#x203a;" horiz-adv-x="209" 
d="M23 477l163 -133v-64l-163 -133v105l77 60l-77 60v105z" />
    <glyph glyph-name="exclamdbl" unicode="&#x203c;" horiz-adv-x="450" 
d="M74 225l-18 368v107h133v-107l-18 -368h-97zM185 130v-130h-125v130h125zM279 225l-18 368v107h133v-107l-18 -368h-97zM390 130v-130h-125v130h125z" />
    <glyph glyph-name="uni203E" unicode="&#x203e;" horiz-adv-x="288" 
d="M25 606v82h238v-82h-238z" />
    <glyph glyph-name="fraction" unicode="&#x2044;" horiz-adv-x="132" 
d="M222 700l-222 -700h-90l222 700h90z" />
    <glyph glyph-name="zerosuperior" unicode="&#x2070;" 
d="M142 620q-24 0 -24 -45v-213q0 -45 24 -45t24 45v213q0 45 -24 45zM142 229q-58 0 -90.5 35.5t-32.5 100.5v207q0 65 32.5 100.5t90.5 35.5t90.5 -35.5t32.5 -100.5v-207q0 -65 -32.5 -100.5t-90.5 -35.5z" />
    <glyph glyph-name="uni2071" unicode="&#x2071;" 
d="M92 237v325h100v-325h-100zM92 602v98h100v-98h-100z" />
    <glyph glyph-name="foursuperior" unicode="&#x2074;" 
d="M92 409h52v116zM272 409v-88h-34v-84h-94v84h-133v76l133 303h94v-291h34z" />
    <glyph glyph-name="fivesuperior" unicode="&#x2075;" 
d="M165 349v79q0 40 -19 40q-16 0 -17 -22h-94v254h213v-89h-114v-67q17 12 36 12q94 0 94 -146v-40q0 -141 -122 -141t-122 141v15l99 3v-39q0 -32 23 -32t23 32z" />
    <glyph glyph-name="sixsuperior" unicode="&#x2076;" 
d="M265 394v-28q0 -66 -33 -101.5t-89 -35.5q-57 0 -90 35.5t-33 103.5v24q0 60 21 119l67 189h104l-60 -168h1q50 0 81 -36t31 -102zM167 358v45q0 42 -24 42t-24 -42v-45q0 -42 24 -42t24 42z" />
    <glyph glyph-name="sevensuperior" unicode="&#x2077;" 
d="M22 614v86h241v-73l-109 -389h-101l104 376h-135z" />
    <glyph glyph-name="eightsuperior" unicode="&#x2078;" 
d="M142 627q-23 0 -23 -39v-21q0 -39 23 -39t23 39v21q0 39 -23 39zM142 449q-28 0 -28 -53v-29q0 -54 28 -54t28 54v29q0 53 -28 53zM142 230q-61 0 -93.5 36t-32.5 105v20q0 75 47 101q-34 23 -34 79v17q0 57 29.5 89t83.5 32t83.5 -32t29.5 -89v-17q0 -56 -34 -79
q47 -26 47 -101v-20q0 -69 -32.5 -105t-93.5 -36z" />
    <glyph glyph-name="ninesuperior" unicode="&#x2079;" 
d="M19 543v28q0 66 33 101.5t89 35.5q57 0 90 -35.5t33 -103.5v-24q0 -61 -21 -119l-67 -189h-104l60 168h-1q-50 0 -81 36t-31 102zM117 579v-45q0 -42 24 -42t24 42v45q0 42 -24 42t-24 -42z" />
    <glyph glyph-name="uni207A" unicode="&#x207a;" 
d="M96 340v86h-78v78h78v86h92v-86h78v-78h-78v-86h-92z" />
    <glyph glyph-name="uni207B" unicode="&#x207b;" 
d="M266 426h-248v78h248v-78z" />
    <glyph glyph-name="uni207C" unicode="&#x207c;" 
d="M266 491h-248v78h248v-78zM266 368h-248v78h248v-78z" />
    <glyph glyph-name="uni207D" unicode="&#x207d;" 
d="M176 576v-215q0 -78 55 -104l-29 -85q-123 47 -123 186v221q0 139 123 186l29 -85q-55 -26 -55 -104z" />
    <glyph glyph-name="uni207E" unicode="&#x207e;" 
d="M109 361v215q0 78 -55 104l29 85q123 -47 123 -186v-221q0 -139 -123 -186l-29 85q55 26 55 104z" />
    <glyph glyph-name="uni207F" unicode="&#x207f;" 
d="M119 492v-255h-94v351h94v-26q21 35 60 35q45 0 63 -30.5t18 -93.5v-236h-94v244q0 32 -21 32t-26 -21z" />
    <glyph glyph-name="zeroinferior" unicode="&#x2080;" 
d="M142 257q-24 0 -24 -45v-213q0 -45 24 -45t24 45v213q0 45 -24 45zM142 -134q-58 0 -90.5 35.5t-32.5 100.5v207q0 65 32.5 100.5t90.5 35.5t90.5 -35.5t32.5 -100.5v-207q0 -65 -32.5 -100.5t-90.5 -35.5z" />
    <glyph glyph-name="oneinferior" unicode="&#x2081;" 
d="M261 -126h-220v88h60v275l-60 -26v87l81 39h79v-375h60v-88z" />
    <glyph glyph-name="twoinferior" unicode="&#x2082;" 
d="M161 199v14q0 37 -20 37q-21 0 -21 -37v-30l-99 2v24q0 66 31 101t89 35q119 0 119 -134v-12q0 -60 -30 -108l-82 -129h114v-88h-239v69l121 196q17 26 17 60z" />
    <glyph glyph-name="threeinferior" unicode="&#x2083;" 
d="M117 29v-32q0 -23 5 -33t18 -10t18 10t5 33v50q0 44 -26 44q-13 0 -25 -12l-49 49l77 120h-109v89h219v-79l-63 -95q36 -4 55.5 -35t19.5 -83v-40q0 -139 -122 -139t-122 139v20z" />
    <glyph glyph-name="fourinferior" unicode="&#x2084;" 
d="M92 46h52v116zM272 46v-88h-34v-84h-94v84h-133v76l133 303h94v-291h34z" />
    <glyph glyph-name="fiveinferior" unicode="&#x2085;" 
d="M165 -14v79q0 40 -19 40q-16 0 -17 -22h-94v254h213v-89h-114v-67q17 12 36 12q94 0 94 -146v-40q0 -141 -122 -141t-122 141v15l99 3v-39q0 -32 23 -32t23 32z" />
    <glyph glyph-name="sixinferior" unicode="&#x2086;" 
d="M265 31v-28q0 -66 -33 -101.5t-89 -35.5q-57 0 -90 35.5t-33 103.5v24q0 61 21 119l67 189h104l-60 -168h1q50 0 81 -36t31 -102zM167 -5v45q0 42 -24 42t-24 -42v-45q0 -42 24 -42t24 42z" />
    <glyph glyph-name="seveninferior" unicode="&#x2087;" 
d="M22 251v86h241v-73l-109 -389h-101l104 376h-135z" />
    <glyph glyph-name="eightinferior" unicode="&#x2088;" 
d="M142 264q-23 0 -23 -39v-21q0 -39 23 -39t23 39v21q0 39 -23 39zM142 86q-28 0 -28 -53v-29q0 -54 28 -54t28 54v29q0 53 -28 53zM142 -133q-61 0 -93.5 36t-32.5 105v20q0 75 47 101q-34 23 -34 79v17q0 57 29.5 89t83.5 32t83.5 -32t29.5 -89v-17q0 -56 -34 -79
q47 -26 47 -101v-20q0 -69 -32.5 -105t-93.5 -36z" />
    <glyph glyph-name="nineinferior" unicode="&#x2089;" 
d="M19 180v28q0 66 33 101.5t89 35.5q57 0 90 -35.5t33 -103.5v-24q0 -60 -21 -119l-67 -189h-104l60 168h-1q-50 0 -81 36t-31 102zM117 216v-45q0 -42 24 -42t24 42v45q0 42 -24 42t-24 -42z" />
    <glyph glyph-name="uni208A" unicode="&#x208a;" 
d="M96 -23v86h-78v78h78v86h92v-86h78v-78h-78v-86h-92z" />
    <glyph glyph-name="uni208B" unicode="&#x208b;" 
d="M266 63h-248v78h248v-78z" />
    <glyph glyph-name="uni208C" unicode="&#x208c;" 
d="M266 128h-248v78h248v-78zM266 5h-248v78h248v-78z" />
    <glyph glyph-name="uni208D" unicode="&#x208d;" 
d="M176 213v-215q0 -78 55 -104l-29 -85q-123 47 -123 186v221q0 139 123 186l29 -85q-55 -26 -55 -104z" />
    <glyph glyph-name="uni208E" unicode="&#x208e;" 
d="M109 -2v215q0 78 -55 104l29 85q123 -47 123 -186v-221q0 -139 -123 -186l-29 85q55 26 55 104z" />
    <glyph glyph-name="uni2090" unicode="&#x2090;" 
d="M133 -62q22 0 36 23v57h-22q-36 0 -36 -37v-11q0 -32 22 -32zM37 124v6q0 50 28.5 77.5t79.5 27.5q50 0 78.5 -27.5t28.5 -77.5v-256h-83v20q-16 -28 -51 -28q-39 0 -65 25.5t-26 76.5v13q0 49 29.5 75.5t81.5 26.5h31v43q0 37 -24 37q-22 0 -24 -38v-4z" />
    <glyph glyph-name="uni2091" unicode="&#x2091;" 
d="M142 -134q-55 0 -85 32.5t-30 90.5v123q0 58 30 90.5t85 32.5q54 0 84.5 -33t30.5 -90v-88h-146v-24q0 -56 31 -56q29 0 30 44l85 -3v-2q0 -54 -30.5 -85.5t-84.5 -31.5zM111 87h62v14q0 31 -7 43.5t-24 12.5t-24 -12.5t-7 -43.5v-14z" />
    <glyph glyph-name="uni2092" unicode="&#x2092;" 
d="M142 157q-31 0 -31 -56v-101q0 -56 31 -56t31 56v101q0 56 -31 56zM142 -134q-54 0 -84.5 32.5t-30.5 89.5v125q0 57 30.5 89.5t84.5 32.5t84.5 -32.5t30.5 -89.5v-125q0 -57 -30.5 -89.5t-84.5 -32.5z" />
    <glyph glyph-name="uni2093" unicode="&#x2093;" 
d="M108 226l33 -102l33 102h91l-66 -167l74 -184h-92l-40 119l-40 -119h-92l74 184l-66 167h91z" />
    <glyph glyph-name="uni2094" unicode="&#x2094;" 
d="M142 235q55 0 85 -32.5t30 -90.5v-123q0 -58 -30 -90.5t-85 -32.5q-54 0 -84.5 33t-30.5 90v88h146v24q0 56 -31 56q-29 0 -30 -44l-85 3v2q0 54 30.5 85.5t84.5 31.5zM173 14h-62v-14q0 -31 7 -43.5t24 -12.5t24 12.5t7 43.5v14z" />
    <glyph glyph-name="uni20A0" unicode="&#x20a0;" horiz-adv-x="530" 
d="M195 611q-48 0 -48 -70v-160q0 -76 50 -76q29 0 46 15v170h270v-101h-149v-91h122v-101h-122v-97h149v-100h-270v219q-21 -15 -62 -15q-67 0 -111.5 41t-44.5 117v190q0 77 46.5 118.5t123.5 41.5q76 0 123 -42t47 -113v-9l-122 -4v6q0 61 -48 61z" />
    <glyph glyph-name="colonmonetary" unicode="&#x20a1;" horiz-adv-x="459" 
d="M156 699v95h62v-83q5 1 16 1q13 0 19 -1v83h62v-96q57 -22 88.5 -75.5t31.5 -136.5v-25l-134 -5v19q0 63 -16.5 90.5t-50.5 27.5t-50.5 -27.5t-16.5 -90.5v-250q0 -63 16.5 -90.5t50.5 -27.5t50.5 27.5t16.5 90.5v19l134 -5v-25q0 -168 -120 -213v-95h-62v83
q-6 -1 -19 -1q-11 0 -16 1v-83h-62v94q-123 44 -123 214v272q0 84 32.5 138t90.5 75z" />
    <glyph glyph-name="uni20A2" unicode="&#x20a2;" horiz-adv-x="459" 
d="M192 115v282h85v-31q17 40 52 40q17 0 32 -6v-89q-16 8 -37 8q-32 0 -47 -33v-170q34 28 34 104v24l124 -5v-25q0 -110 -54 -168t-147 -58t-147 58t-54 168v272q0 110 54 168t147 58t147 -58t54 -168v-25l-124 -5v24q0 118 -77 118t-77 -118v-260q0 -78 35 -105z" />
    <glyph glyph-name="franc" unicode="&#x20a3;" horiz-adv-x="401" 
d="M315 370h-137v-51h137v-68h-137v-251h-134v251h-51v68h51v51h-51v68h51v262h344v-119h-210v-143h137v-68z" />
    <glyph glyph-name="lira" unicode="&#x20a4;" horiz-adv-x="446" 
d="M205 300h133v-67h-133v-4q0 -74 -26 -110h240v-119h-388v96q40 54 40 125v12h-49v67h49v46h-49v67h49v104q0 89 43.5 142t130.5 53t130.5 -53t43.5 -142v-27l-134 -5v40q0 68 -40 68t-40 -67v-113h133v-67h-133v-46z" />
    <glyph glyph-name="uni20A6" unicode="&#x20a6;" horiz-adv-x="508" 
d="M0 438h54v262h116l154 -406v406h130v-266h54v-67h-54v-39h54v-67h-54v-261h-116l-154 406v-406h-130v265h-54v67h54v39h-54v67z" />
    <glyph glyph-name="peseta" unicode="&#x20a7;" horiz-adv-x="874" 
d="M561 108h120q26 0 37.5 11t11.5 38q0 22 -8.5 33t-29.5 19l-37 13q-94 32 -94 141q0 18 2 28h-44v-227q0 -34 9 -45t33 -11zM261 470q0 119 -69 119h-21v-238h21q69 0 69 119zM836 357l-110 -4v18q0 32 -24 32t-24 -32v-5q0 -25 8 -35.5t34 -19.5l37 -13q90 -32 90 -137
v-19q0 -69 -40.5 -105.5t-112.5 -36.5h-165q-65 0 -96 37.5t-31 122.5v231h-35q-15 -75 -58.5 -113t-100.5 -38h-37v-240h-127v700h133q38 0 68.5 -8t60 -28t47 -61.5t21.5 -102.5h28v142h117v-142h74v-33q42 45 109 45q64 0 99 -39.5t35 -101.5v-14z" />
    <glyph glyph-name="uni20A8" unicode="&#x20a8;" horiz-adv-x="731" 
d="M317 290l96 -290h-130l-76 258h-39v-258h-124v700h165q81 0 132 -54.5t51 -166.5q0 -134 -75 -189zM269 479q0 108 -78 108h-23v-217h23q78 0 78 109zM591 133v4q0 24 -10.5 38t-40.5 27l-36 16q-47 21 -68 54t-21 85v19q0 60 36 98t103 38t103 -38t36 -98v-19l-113 -4
v22q0 35 -26 35t-26 -35v-4q0 -24 10.5 -38t40.5 -27l36 -16q47 -21 68 -54t21 -85v-19q0 -67 -38.5 -105.5t-104.5 -38.5t-105 38.5t-39 105.5v16l112 4v-19q0 -44 31 -44t31 44z" />
    <glyph glyph-name="uni20A9" unicode="&#x20a9;" horiz-adv-x="712" 
d="M493 261l72 439h134l-52 -261h65v-67h-78l-8 -39h86v-67h-99l-53 -266h-128l-76 450l-76 -450h-128l-53 266h-99v67h86l-8 39h-78v67h65l-52 261h134l72 -439l73 439h128z" />
    <glyph glyph-name="afii57636" unicode="&#x20aa;" horiz-adv-x="676" 
d="M44 0v700h242q188 0 188 -224v-218h-114v198q0 72 -20.5 104t-61.5 32h-120v-592h-114zM632 700v-700h-241q-189 0 -189 224v218h114v-198q0 -72 20.5 -104t61.5 -32h120v592h114z" />
    <glyph glyph-name="dong" unicode="&#x20ab;" horiz-adv-x="415" 
d="M370 645h55v-85h-55v-560h-122v37q-24 -49 -87 -49q-59 0 -95.5 43t-36.5 134v169q0 91 36.5 134.5t95.5 43.5q63 0 87 -49v97h-79v85h79v55h122v-55zM248 135v230q-14 38 -48 38q-49 0 -49 -78v-150q0 -78 49 -78q34 0 48 38zM72 -159v86h283v-86h-283z" />
    <glyph glyph-name="Euro" unicode="&#x20ac;" horiz-adv-x="477" 
d="M452 239v-25q0 -110 -54 -168t-147 -58t-147 58t-54 168v43h-41v68h41v46h-41v67h41v48q0 110 54 168t147 58t147 -58t54 -168v-25l-134 -5v19q0 63 -16.5 90.5t-50.5 27.5t-50.5 -27.5t-16.5 -90.5v-37h101l-8 -67h-93v-46h86l-8 -68h-78v-32q0 -63 16.5 -90.5
t50.5 -27.5t50.5 27.5t16.5 90.5v19z" />
    <glyph glyph-name="afii61248" unicode="&#x2105;" horiz-adv-x="743" 
d="M528 700l-222 -700h-90l222 700h90zM718 292v-147q0 -73 -35.5 -113t-100.5 -40t-100.5 40t-35.5 113v147q0 73 35.5 113t100.5 40t100.5 -40t35.5 -113zM614 164v109q0 42 -6.5 59t-25.5 17t-25.5 -17t-6.5 -59v-109q0 -42 6.5 -59t25.5 -17t25.5 17t6.5 59zM161 351
q19 0 25.5 16.5t6.5 56.5l104 -4v-12q0 -73 -35.5 -113t-100.5 -40t-100.5 40t-35.5 113v147q0 73 35.5 113t100.5 40t100.5 -40t35.5 -113v-12l-104 -4q0 40 -6.5 56.5t-25.5 16.5t-25.5 -17t-6.5 -59v-109q0 -42 6.5 -59t25.5 -17z" />
    <glyph glyph-name="uni2109" unicode="&#x2109;" horiz-adv-x="643" 
d="M23 601q0 49 32.5 81t82.5 32t82.5 -32t32.5 -81t-32.5 -81t-82.5 -32t-82.5 32t-32.5 81zM103 601q0 -18 10 -28.5t25 -10.5t25 10.5t10 28.5t-10 28.5t-25 10.5t-25 -10.5t-10 -28.5zM286 0v700h344v-119h-210v-172h187v-119h-187v-290h-134z" />
    <glyph glyph-name="afii61289" unicode="&#x2113;" horiz-adv-x="405" 
d="M226 103q32 0 33 60l122 -12q-1 -77 -43 -120t-113 -43q-66 0 -108.5 38.5t-42.5 108.5q-12 -4 -49 -13l-21 124q29 8 70 23v271q0 82 39.5 127t108.5 45t108.5 -45t39.5 -127v-33q0 -214 -175 -320v-23q0 -61 31 -61zM249 501v24q0 41 -6 56t-21 15t-21 -15t-6 -56v-186
q53 56 54 162z" />
    <glyph glyph-name="afii61352" unicode="&#x2116;" horiz-adv-x="681" 
d="M263 0l-112 389v-389h-107v700h102l112 -389v389h107v-700h-102zM396 0v85h256v-85h-256zM650 370v-104q0 -74 -35 -113t-91 -39t-91 39t-35 113v104q0 74 35 113t91 39t91 -39t35 -113zM558 263v110q0 56 -34 56t-34 -56v-110q0 -56 34 -56t34 56z" />
    <glyph glyph-name="uni2117" unicode="&#x2117;" horiz-adv-x="552" 
d="M407 421q0 -66 -34 -101.5t-87 -35.5h-30v-145h-83v419h113q53 0 87 -35.5t34 -101.5zM256 357h22q46 0 46 64t-46 64h-22v-128zM26 287v126q0 149 66.5 224t183.5 75t183.5 -75t66.5 -224v-126q0 -149 -66.5 -224t-183.5 -75t-183.5 75t-66.5 224zM91 405v-110
q0 -246 185 -246t185 246v110q0 246 -185 246t-185 -246z" />
    <glyph glyph-name="uni2120" unicode="&#x2120;" horiz-adv-x="490" 
d="M359 443h-30l-29 82v-159h-76v334h68l52 -151l52 151h68v-334h-76v159zM16 452v8l76 3v-13q0 -24 18 -24t18 24v11q0 32 -25 38q-47 12 -68 36t-21 68v14q0 39 24 64t66 25t66 -25t24 -64v-11l-76 -3v15q0 22 -14 22t-14 -22v-14q0 -27 33 -36q41 -11 61 -34t20 -65v-17
q0 -41 -26 -66.5t-68 -25.5t-68 25.5t-26 66.5z" />
    <glyph glyph-name="uni2121" unicode="&#x2121;" horiz-adv-x="798" 
d="M6 590v110h317v-110h-99v-590h-119v590h-99zM470 300h-92v49q0 67 46 67t46 -67v-49zM613 160v552h107v-555q0 -34 9.5 -46t34.5 -12h25v-99h-56q-68 0 -94 36t-26 124zM424 -12q138 0 151 157l-105 5q-2 -66 -46 -66q-46 0 -46 67v60h198v111q0 190 -152 190t-152 -190
v-144q0 -190 152 -190z" />
    <glyph glyph-name="trademark" unicode="&#x2122;" horiz-adv-x="486" 
d="M5 613v87h197v-87h-56v-247h-85v247h-56zM354 443h-30l-29 82v-159h-76v334h68l52 -151l52 151h68v-334h-76v159z" />
    <glyph glyph-name="Omega" unicode="&#x2126;" horiz-adv-x="476" 
d="M238 712q93 0 147 -58t54 -168v-204q0 -122 -62 -163h61v-119h-177v109q26 15 35 48t9 105v213q0 63 -16.5 90.5t-50.5 27.5t-50.5 -27.5t-16.5 -90.5v-213q0 -72 9 -105t35 -48v-109h-177v119h61q-62 41 -62 163v204q0 110 54 168t147 58z" />
    <glyph glyph-name="estimated" unicode="&#x212e;" horiz-adv-x="518" 
d="M383 375v221q-40 61 -124 61t-124 -61v-221h248zM135 320v-210q38 -67 129 -67q50 0 82 18t58 57l60 -11q-65 -119 -200 -119q-104 0 -168 74.5t-64 208.5v158q0 133 63.5 208t163.5 75t163.5 -75t63.5 -208v-109h-351z" />
    <glyph glyph-name="onethird" unicode="&#x2153;" horiz-adv-x="712" 
d="M256 237h-220v88h60v275l-60 -26v87l81 39h79v-375h60v-88zM512 700l-222 -700h-90l222 700h90zM546 123v32l-99 -4v-20q0 -139 122 -139t122 139v40q0 52 -19.5 83t-55.5 35l63 95v79h-219v-89h109l-77 -120l49 -49q12 12 25 12q26 0 26 -44v-50q0 -23 -5 -33t-18 -10
t-18 10t-5 33z" />
    <glyph glyph-name="twothirds" unicode="&#x2154;" horiz-adv-x="712" 
d="M161 562v14q0 37 -20 37q-21 0 -21 -37v-30l-99 2v24q0 66 31 101t89 35q119 0 119 -134v-12q0 -60 -30 -108l-82 -129h114v-88h-239v69l121 196q17 26 17 60zM512 700l-222 -700h-90l222 700h90zM546 123v32l-99 -4v-20q0 -139 122 -139t122 139v40q0 52 -19.5 83
t-55.5 35l63 95v79h-219v-89h109l-77 -120l49 -49q12 12 25 12q26 0 26 -44v-50q0 -23 -5 -33t-18 -10t-18 10t-5 33z" />
    <glyph glyph-name="onefifth" unicode="&#x2155;" horiz-adv-x="712" 
d="M261 237h-220v88h60v275l-60 -26v87l81 39h79v-375h60v-88zM512 700l-222 -700h-90l222 700h90zM592 191v-79q0 -32 -23 -32t-23 32v39l-99 -3v-15q0 -141 122 -141t122 141v40q0 146 -94 146q-19 0 -36 -12v67h114v89h-213v-254h94q1 22 17 22q19 0 19 -40z" />
    <glyph glyph-name="twofifths" unicode="&#x2156;" horiz-adv-x="712" 
d="M161 562v14q0 37 -20 37q-21 0 -21 -37v-30l-99 2v24q0 66 31 101t89 35q119 0 119 -134v-12q0 -60 -30 -108l-82 -129h114v-88h-239v69l121 196q17 26 17 60zM512 700l-222 -700h-90l222 700h90zM592 191v-79q0 -32 -23 -32t-23 32v39l-99 -3v-15q0 -141 122 -141
t122 141v40q0 146 -94 146q-19 0 -36 -12v67h114v89h-213v-254h94q1 22 17 22q19 0 19 -40z" />
    <glyph glyph-name="threefifths" unicode="&#x2157;" horiz-adv-x="712" 
d="M117 392v-32q0 -23 5 -33t18 -10t18 10t5 33v50q0 44 -26 44q-13 0 -25 -12l-49 49l77 120h-109v89h219v-79l-63 -95q36 -4 55.5 -35t19.5 -83v-40q0 -139 -122 -139t-122 139v20zM512 700l-222 -700h-90l222 700h90zM592 112v79q0 40 -19 40q-16 0 -17 -22h-94v254h213
v-89h-114v-67q17 12 36 12q94 0 94 -146v-40q0 -141 -122 -141t-122 141v15l99 3v-39q0 -32 23 -32t23 32z" />
    <glyph glyph-name="fourfifths" unicode="&#x2158;" horiz-adv-x="712" 
d="M92 409h52v116zM272 409v-88h-34v-84h-94v84h-133v76l133 303h94v-291h34zM512 700l-222 -700h-90l222 700h90zM592 191v-79q0 -32 -23 -32t-23 32v39l-99 -3v-15q0 -141 122 -141t122 141v40q0 146 -94 146q-19 0 -36 -12v67h114v89h-213v-254h94q1 22 17 22
q19 0 19 -40z" />
    <glyph glyph-name="onesixth" unicode="&#x2159;" horiz-adv-x="712" 
d="M261 237h-220v88h60v275l-60 -26v87l81 39h79v-375h60v-88zM512 700l-222 -700h-90l222 700h90zM693 157v-28q0 -66 -33 -101.5t-89 -35.5q-57 0 -90 35.5t-33 103.5v24q0 61 21 119l67 189h104l-60 -168h1q50 0 81 -36t31 -102zM595 121v45q0 42 -24 42t-24 -42v-45
q0 -42 24 -42t24 42z" />
    <glyph glyph-name="fivesixths" unicode="&#x215a;" horiz-adv-x="712" 
d="M165 349v79q0 40 -19 40q-16 0 -17 -22h-94v254h213v-89h-114v-67q17 12 36 12q94 0 94 -146v-40q0 -141 -122 -141t-122 141v15l99 3v-39q0 -32 23 -32t23 32zM512 700l-222 -700h-90l222 700h90zM693 157v-28q0 -66 -33 -101.5t-89 -35.5q-57 0 -90 35.5t-33 103.5v24
q0 61 21 119l67 189h104l-60 -168h1q50 0 81 -36t31 -102zM595 121v45q0 42 -24 42t-24 -42v-45q0 -42 24 -42t24 42z" />
    <glyph glyph-name="oneeighth" unicode="&#x215b;" horiz-adv-x="712" 
d="M261 237h-220v88h60v275l-60 -26v87l81 39h79v-375h60v-88zM512 700l-222 -700h-90l222 700h90zM566 390q23 0 23 -39v-21q0 -39 -23 -39t-23 39v21q0 39 23 39zM566 212q28 0 28 -53v-29q0 -54 -28 -54t-28 54v29q0 53 28 53zM566 -7q61 0 93.5 36t32.5 105v20
q0 75 -47 101q34 23 34 79v17q0 57 -29.5 89t-83.5 32t-83.5 -32t-29.5 -89v-17q0 -56 34 -79q-47 -26 -47 -101v-20q0 -69 32.5 -105t93.5 -36z" />
    <glyph glyph-name="threeeighths" unicode="&#x215c;" horiz-adv-x="712" 
d="M117 392v-32q0 -23 5 -33t18 -10t18 10t5 33v50q0 44 -26 44q-13 0 -25 -12l-49 49l77 120h-109v89h219v-79l-63 -95q36 -4 55.5 -35t19.5 -83v-40q0 -139 -122 -139t-122 139v20zM512 700l-222 -700h-90l222 700h90zM566 390q-23 0 -23 -39v-21q0 -39 23 -39t23 39v21
q0 39 -23 39zM566 212q-28 0 -28 -53v-29q0 -54 28 -54t28 54v29q0 53 -28 53zM566 -7q-61 0 -93.5 36t-32.5 105v20q0 75 47 101q-34 23 -34 79v17q0 57 29.5 89t83.5 32t83.5 -32t29.5 -89v-17q0 -56 -34 -79q47 -26 47 -101v-20q0 -69 -32.5 -105t-93.5 -36z" />
    <glyph glyph-name="fiveeighths" unicode="&#x215d;" horiz-adv-x="712" 
d="M165 349v79q0 40 -19 40q-16 0 -17 -22h-94v254h213v-89h-114v-67q17 12 36 12q94 0 94 -146v-40q0 -141 -122 -141t-122 141v15l99 3v-39q0 -32 23 -32t23 32zM512 700l-222 -700h-90l222 700h90zM566 390q-23 0 -23 -39v-21q0 -39 23 -39t23 39v21q0 39 -23 39z
M566 212q-28 0 -28 -53v-29q0 -54 28 -54t28 54v29q0 53 -28 53zM566 -7q-61 0 -93.5 36t-32.5 105v20q0 75 47 101q-34 23 -34 79v17q0 57 29.5 89t83.5 32t83.5 -32t29.5 -89v-17q0 -56 -34 -79q47 -26 47 -101v-20q0 -69 -32.5 -105t-93.5 -36z" />
    <glyph glyph-name="seveneighths" unicode="&#x215e;" horiz-adv-x="712" 
d="M22 614v86h241v-73l-109 -389h-101l104 376h-135zM512 700l-222 -700h-90l222 700h90zM566 390q23 0 23 -39v-21q0 -39 -23 -39t-23 39v21q0 39 23 39zM566 212q28 0 28 -53v-29q0 -54 -28 -54t-28 54v29q0 53 28 53zM566 -7q61 0 93.5 36t32.5 105v20q0 75 -47 101
q34 23 34 79v17q0 57 -29.5 89t-83.5 32t-83.5 -32t-29.5 -89v-17q0 -56 34 -79q-47 -26 -47 -101v-20q0 -69 32.5 -105t93.5 -36z" />
    <glyph glyph-name="uni215F" unicode="&#x215f;" horiz-adv-x="712" 
d="M256 237h-220v88h60v275l-60 -26v87l81 39h79v-375h60v-88zM512 700l-222 -700h-90l222 700h90z" />
    <glyph glyph-name="arrowleft" unicode="&#x2190;" horiz-adv-x="630" 
d="M608 389v-115h-395v-112l-191 169l191 170v-112h395z" />
    <glyph glyph-name="arrowup" unicode="&#x2191;" horiz-adv-x="630" 
d="M372 -38h-114v597h-112l169 191l169 -191h-112v-597z" />
    <glyph glyph-name="arrowright" unicode="&#x2192;" horiz-adv-x="630" 
d="M22 274v115h395v112l191 -170l-191 -169v112h-395z" />
    <glyph glyph-name="arrowdown" unicode="&#x2193;" horiz-adv-x="630" 
d="M258 750h114v-597h112l-169 -191l-169 191h112v597z" />
    <glyph glyph-name="arrowboth" unicode="&#x2194;" horiz-adv-x="630" 
d="M213 274v-112l-191 169l191 170v-112h204v112l191 -170l-191 -169v112h-204z" />
    <glyph glyph-name="arrowupdn" unicode="&#x2195;" horiz-adv-x="630" 
d="M484 152l-169 -190l-169 190h112v407h-112l169 191l169 -191h-112v-407h112z" />
    <glyph glyph-name="arrowupdnbse" unicode="&#x21a8;" horiz-adv-x="630" 
d="M345 -4h141v-84h-342v84h141l-139 156h112v407h-112l169 191l169 -191h-112v-407h112z" />
    <glyph glyph-name="partialdiff" unicode="&#x2202;" horiz-adv-x="457" 
d="M166 238v-18q0 -64 13 -89t45 -25t45 25t13 89v108q-23 18 -53 18q-38 0 -50.5 -23.5t-12.5 -84.5zM185 522v-25l-135 5v26q0 85 47.5 134.5t135.5 49.5t135.5 -49.5t47.5 -134.5v-332q0 -102 -52.5 -155t-139.5 -53t-139.5 53t-52.5 155v58q0 99 48.5 150.5t131.5 51.5
q40 0 69 -16v82q0 71 -48 71t-48 -71z" />
    <glyph glyph-name="Delta" unicode="&#x2206;" horiz-adv-x="459" 
d="M460 0h-462l197 700h68zM162 123h134l-67 288z" />
    <glyph glyph-name="product" unicode="&#x220f;" horiz-adv-x="471" 
d="M293 -112v732h-115v-732h-134v851h383v-851h-134z" />
    <glyph glyph-name="summation" unicode="&#x2211;" horiz-adv-x="390" 
d="M23 -4l113 327l-113 307v110h350v-119h-213l97 -277v-42l-96 -294h212v-119h-350v107z" />
    <glyph glyph-name="minus" unicode="&#x2212;" horiz-adv-x="423" 
d="M30 273v102h363v-102h-363z" />
    <glyph glyph-name="uni2215" unicode="&#x2215;" horiz-adv-x="132" 
d="M222 700l-222 -700h-90l222 700h90z" />
    <glyph glyph-name="uni2219" unicode="&#x2219;" horiz-adv-x="202" 
d="M167 393v-138h-132v138h132z" />
    <glyph glyph-name="radical" unicode="&#x221a;" horiz-adv-x="416" 
d="M269 0h-99l-117 281h-52v96h122l74 -183l108 576h110z" />
    <glyph glyph-name="infinity" unicode="&#x221e;" horiz-adv-x="570" 
d="M543 326q0 -57 -35.5 -90.5t-94.5 -33.5q-74 0 -128 63q-54 -63 -128 -63q-59 0 -94.5 33.5t-35.5 90.5t35.5 90.5t94.5 33.5q74 0 128 -63q54 63 128 63q59 0 94.5 -33.5t35.5 -90.5zM332 326q38 -43 74 -43q18 0 30 12t12 31t-12 31t-30 12q-36 0 -74 -43zM238 326
q-38 43 -74 43q-18 0 -30 -12t-12 -31t12 -31t30 -12q36 0 74 43z" />
    <glyph glyph-name="orthogonal" unicode="&#x221f;" horiz-adv-x="409" 
d="M400 119v-119h-356v575h135v-456h221z" />
    <glyph glyph-name="intersection" unicode="&#x2229;" horiz-adv-x="502" 
d="M251 506q-42 0 -62 -34.5t-20 -112.5v-359h-125v372q0 117 54 181t153 64t153 -64t54 -181v-372h-125v359q0 78 -20 112.5t-62 34.5z" />
    <glyph glyph-name="integral" unicode="&#x222b;" horiz-adv-x="300" 
d="M211 570v-627q0 -86 -31 -123.5t-104 -37.5h-67v109h38q24 0 33 12t9 46v627q0 86 31 123.5t104 37.5h67v-109h-38q-24 0 -33 -12t-9 -46z" />
    <glyph glyph-name="approxequal" unicode="&#x2248;" horiz-adv-x="423" 
d="M268 261q27 0 28 45l102 -4q-2 -139 -115 -139q-35 0 -74 24.5t-54 24.5q-27 0 -28 -45l-102 4q2 139 115 139q35 0 74 -24.5t54 -24.5zM268 433q27 0 28 45l102 -4q-2 -139 -115 -139q-35 0 -74 24.5t-54 24.5q-27 0 -28 -45l-102 4q2 139 115 139q35 0 74 -24.5
t54 -24.5z" />
    <glyph glyph-name="notequal" unicode="&#x2260;" horiz-adv-x="423" 
d="M30 365v102h204l46 108h72l-46 -108h87v-102h-129l-33 -78h162v-102h-205l-45 -108h-72l45 108h-86v102h129l33 78h-162z" />
    <glyph glyph-name="equivalence" unicode="&#x2261;" horiz-adv-x="423" 
d="M30 449v102h363v-102h-363zM30 274v102h363v-102h-363zM30 99v102h363v-102h-363z" />
    <glyph glyph-name="lessequal" unicode="&#x2264;" horiz-adv-x="423" 
d="M30 0v102h363v-102h-363zM382 141l-342 140v106l342 140v-113l-214 -80l214 -80v-113z" />
    <glyph glyph-name="greaterequal" unicode="&#x2265;" horiz-adv-x="423" 
d="M393 102v-102h-363v102h363zM383 281l-342 -140v113l214 80l-214 80v113l342 -140v-106z" />
    <glyph glyph-name="house" unicode="&#x2302;" horiz-adv-x="454" 
d="M154 295v-190h146v190l-73 118zM41 0v326l186 291l186 -291v-326h-372z" />
    <glyph glyph-name="revlogicalnot" unicode="&#x2310;" horiz-adv-x="423" 
d="M391 375v-102h-230v-130h-119v232h349z" />
    <glyph glyph-name="uni2318" unicode="&#x2318;" horiz-adv-x="646" 
d="M357 465v58q0 141 118 141q119 0 119 -128v-24q0 -127 -119 -127h-29v-112h29q119 0 119 -127v-24q0 -128 -119 -128q-118 0 -118 141v58h-68v-58q0 -141 -118 -141q-119 0 -119 128v24q0 127 119 127h29v112h-29q-119 0 -119 127v24q0 128 119 128q118 0 118 -141v-58
h68zM289 385v-112h68v112h-68zM142 538v-27q0 -46 29 -46h29v73q0 46 -29 46t-29 -46zM142 147v-27q0 -46 29 -46t29 46v73h-29q-29 0 -29 -46zM504 120v27q0 46 -29 46h-29v-73q0 -46 29 -46t29 46zM504 511v27q0 46 -29 46t-29 -46v-73h29q29 0 29 46z" />
    <glyph glyph-name="lozenge" unicode="&#x25ca;" horiz-adv-x="452" 
d="M140 301l86 -199l87 199l-87 198zM429 301l-203 -463l-203 463l203 463z" />
    <glyph glyph-name="H18533" unicode="&#x25cf;" horiz-adv-x="944" 
d="M146 314q0 134 96 230t230 96t230 -96t96 -230t-96 -230t-230 -96t-230 96t-96 230z" />
    <glyph glyph-name="fi" horiz-adv-x="465" 
d="M300 0v391h-115v-391h-122v391h-49v109h49v51q0 86 31 123.5t104 37.5h67v-109h-38q-24 0 -33 -12t-9 -46v-45h237v-500h-122zM300 580v132h122v-132h-122z" />
    <glyph glyph-name="fl" horiz-adv-x="501" 
d="M301 691v21h122v-545q0 -34 8.5 -46t32.5 -12h28v-109h-58q-71 0 -102 37t-31 123v430q-29 13 -64 13q-29 0 -40.5 -12.5t-11.5 -45.5v-45h80v-109h-80v-391h-122v391h-49v109h49v51q0 90 31.5 125.5t108.5 35.5q50 0 98 -21z" />
    <glyph glyph-name="commaaccent" horiz-adv-x="288" 
d="M213 -49l-57 -161h-81l32 161h106z" />
    <glyph glyph-name="zero.tnum" horiz-adv-x="404" 
d="M28 192v316q0 98 45 151t129 53t129 -53t45 -151v-316q0 -98 -45 -151t-129 -53t-129 53t-45 151zM157 501v-302q0 -57 10.5 -78t34.5 -21t34.5 21t10.5 78v302q0 57 -10.5 78t-34.5 21t-34.5 -21t-10.5 -78z" />
    <glyph glyph-name="one.tnum" horiz-adv-x="357" 
d="M348 0h-313v111h93v441l-93 -44v124l121 68h100v-589h92v-111z" />
    <glyph glyph-name="two.tnum" horiz-adv-x="396" 
d="M199 601q-21 0 -31 -18.5t-10 -63.5v-49l-129 5v41q0 196 170 196q169 0 169 -196v-23q0 -78 -45 -157l-132 -225h177v-111h-340v86l185 315q26 42 26 92v26q0 82 -40 82z" />
    <glyph glyph-name="three.tnum" horiz-adv-x="390" 
d="M369 257v-68q0 -97 -45 -149t-129 -52t-129 52.5t-45 150.5v34l129 5v-32q0 -57 10.5 -78t34.5 -21t34.5 21t10.5 78v47q0 55 -11 76.5t-35 21.5q-23 0 -40 -15l-65 61l118 199h-169v112h313v-100l-101 -164q57 -4 88 -51.5t31 -127.5z" />
    <glyph glyph-name="four.tnum" horiz-adv-x="401" 
d="M121 244h88v230zM388 244v-112h-53v-132h-126v132h-196v97l188 471h134v-456h53z" />
    <glyph glyph-name="five.tnum" horiz-adv-x="403" 
d="M379 254v-65q0 -97 -45 -149t-129 -52t-129 52.5t-45 150.5v38l129 5v-36q0 -56 10.5 -77t34.5 -21t34.5 21t10.5 77v58q0 67 -8.5 89t-31.5 22q-28 0 -33 -40h-125v373h301v-112h-172v-138q26 29 67 29q64 0 97.5 -52.5t33.5 -172.5z" />
    <glyph glyph-name="six.tnum" horiz-adv-x="388" 
d="M195 -12q-83 0 -129 52t-46 156v37q0 81 29 165l105 302h135l-94 -261q12 3 20 3q76 0 115.5 -57.5t39.5 -166.5v-24q0 -102 -46 -154t-129 -52zM149 233v-37q0 -54 10 -75.5t36 -21.5t36 21.5t10 75.5v37q0 54 -10 75.5t-36 21.5t-36 -21.5t-10 -75.5z" />
    <glyph glyph-name="seven.tnum" horiz-adv-x="374" 
d="M18 589v111h338v-95l-160 -605h-131l156 589h-203z" />
    <glyph glyph-name="eight.tnum" horiz-adv-x="398" 
d="M199 -12q-178 0 -178 212v28q0 121 72 157q-25 14 -40 47.5t-15 76.5v27q0 86 42.5 131t118.5 45t118.5 -45t42.5 -131v-27q0 -43 -15 -76.5t-40 -47.5q72 -36 72 -157v-28q0 -212 -178 -212zM199 604q-42 0 -42 -72v-27q0 -72 42 -72t42 72v27q0 72 -42 72zM199 327
q-28 0 -41 -23t-13 -80v-22q0 -57 13 -80t41 -23t41 23t13 80v22q0 57 -13 80t-41 23z" />
    <glyph glyph-name="nine.tnum" horiz-adv-x="388" 
d="M193 712q83 0 129 -52t46 -156v-37q0 -81 -29 -165l-105 -302h-135l94 261q-12 -3 -20 -3q-76 0 -115.5 57.5t-39.5 166.5v24q0 102 46 154t129 52zM239 467v37q0 54 -10 75.5t-36 21.5t-36 -21.5t-10 -75.5v-37q0 -54 10 -75.5t36 -21.5t36 21.5t10 75.5z" />
    <glyph glyph-name="parenleft.case" horiz-adv-x="270" 
d="M162 513v-325q0 -129 85 -169l-39 -122q-172 65 -172 276v355q0 211 172 276l39 -122q-85 -40 -85 -169z" />
    <glyph glyph-name="parenright.case" horiz-adv-x="270" 
d="M108 188v325q0 129 -85 169l39 122q172 -65 172 -276v-355q0 -211 -172 -276l-39 122q85 40 85 169z" />
    <glyph glyph-name="hyphen.case" horiz-adv-x="314" 
d="M30 298v104h254v-104h-254z" />
    <glyph glyph-name="at.case" horiz-adv-x="555" 
d="M513 543v-255q0 -192 -160 -192q-76 0 -117 49.5t-41 146.5v74q0 193 141 193q49 0 74 -32q-1 170 -133 170q-133 0 -133 -169v-358q0 -168 133 -168q48 0 88 24l39 -88q-51 -39 -127 -39q-111 0 -173 66t-62 190v388q0 124 62 190.5t173 66.5q112 0 174 -66t62 -191z
M411 292v132q-17 32 -51 32q-28 0 -41.5 -21t-13.5 -72v-71q0 -93 53 -93q27 0 40 21t13 72z" />
    <glyph glyph-name="bracketleft.case" horiz-adv-x="268" 
d="M47 -88v876h203v-116h-76v-644h76v-116h-203z" />
    <glyph glyph-name="bracketright.case" horiz-adv-x="268" 
d="M221 788v-876h-203v116h76v644h-76v116h203z" />
    <glyph glyph-name="braceleft.case" horiz-adv-x="274" 
d="M20 406h6q51 0 51 48v182q0 85 38 118.5t127 33.5h22v-113h-19q-42 0 -42 -52v-164q0 -91 -74 -109q74 -18 74 -109v-164q0 -52 42 -52h19v-113h-22q-89 0 -127 33.5t-38 118.5v182q0 48 -51 48h-6v112z" />
    <glyph glyph-name="braceright.case" horiz-adv-x="274" 
d="M248 406h6v-112h-6q-51 0 -51 -48v-182q0 -85 -38 -118.5t-127 -33.5h-22v113h19q42 0 42 52v164q0 91 74 109q-74 18 -74 109v164q0 52 -42 52h-19v113h22q89 0 127 -33.5t38 -118.5v-182q0 -48 51 -48z" />
    <glyph glyph-name="exclamdown.case" horiz-adv-x="245" 
d="M56 107l18 368h97l18 -368v-107h-133v107zM185 700v-130h-125v130h125z" />
    <glyph glyph-name="guillemotleft.case" horiz-adv-x="379" 
d="M23 382l163 133v-105l-77 -60l77 -60v-105l-163 133v64zM193 382l163 133v-105l-77 -60l77 -60v-105l-163 133v64z" />
    <glyph glyph-name="periodcentered.case" horiz-adv-x="202" 
d="M167 418v-138h-132v138h132z" />
    <glyph glyph-name="guillemotright.case" horiz-adv-x="379" 
d="M193 515l163 -133v-64l-163 -133v105l77 60l-77 60v105zM23 515l163 -133v-64l-163 -133v105l77 60l-77 60v105z" />
    <glyph glyph-name="questiondown.case" horiz-adv-x="393" 
d="M135 570v130h124v-130h-124zM366 199v-25q0 -86 -43.5 -136t-123.5 -50q-82 0 -124 51t-42 140v21q0 57 17 94t57 90q17 22 22.5 40.5t5.5 51.5v30h124v-34q0 -64 -13 -101t-52 -77q-37 -38 -37 -92v-23q0 -66 42 -66q43 0 43 66v25z" />
    <glyph glyph-name="endash.case" horiz-adv-x="366" 
d="M366 296h-366v108h366v-108z" />
    <glyph glyph-name="emdash.case" horiz-adv-x="733" 
d="M733 296h-733v109h733v-109z" />
    <glyph glyph-name="bullet.case" horiz-adv-x="298" 
d="M30 350q0 49 34.5 83.5t84.5 34.5t84.5 -34.5t34.5 -83.5t-34.5 -83.5t-84.5 -34.5t-84.5 34.5t-34.5 83.5z" />
    <glyph glyph-name="guilsinglleft.case" horiz-adv-x="209" 
d="M23 382l163 133v-105l-77 -60l77 -60v-105l-163 133v64z" />
    <glyph glyph-name="guilsinglright.case" horiz-adv-x="209" 
d="M23 515l163 -133v-64l-163 -133v105l77 60l-77 60v105z" />
    <glyph glyph-name="zero.numerator" 
d="M142 620q-24 0 -24 -45v-213q0 -45 24 -45t24 45v213q0 45 -24 45zM142 229q-58 0 -90.5 35.5t-32.5 100.5v207q0 65 32.5 100.5t90.5 35.5t90.5 -35.5t32.5 -100.5v-207q0 -65 -32.5 -100.5t-90.5 -35.5z" />
    <glyph glyph-name="one.numerator" 
d="M261 237h-220v88h60v275l-60 -26v87l81 39h79v-375h60v-88z" />
    <glyph glyph-name="two.numerator" 
d="M161 562v14q0 37 -20 37q-21 0 -21 -37v-30l-99 2v24q0 66 31 101t89 35q119 0 119 -134v-12q0 -60 -30 -108l-82 -129h114v-88h-239v69l121 196q17 26 17 60z" />
    <glyph glyph-name="three.numerator" 
d="M117 392v-32q0 -23 5 -33t18 -10t18 10t5 33v50q0 44 -26 44q-13 0 -25 -12l-49 49l77 120h-109v89h219v-79l-63 -95q36 -4 55.5 -35t19.5 -83v-40q0 -139 -122 -139t-122 139v20z" />
    <glyph glyph-name="four.numerator" 
d="M92 409h52v116zM272 409v-88h-34v-84h-94v84h-133v76l133 303h94v-291h34z" />
    <glyph glyph-name="five.numerator" 
d="M165 349v79q0 40 -19 40q-16 0 -17 -22h-94v254h213v-89h-114v-67q17 12 36 12q94 0 94 -146v-40q0 -141 -122 -141t-122 141v15l99 3v-39q0 -32 23 -32t23 32z" />
    <glyph glyph-name="six.numerator" 
d="M265 394v-28q0 -66 -33 -101.5t-89 -35.5q-57 0 -90 35.5t-33 103.5v24q0 60 21 119l67 189h104l-60 -168h1q50 0 81 -36t31 -102zM167 358v45q0 42 -24 42t-24 -42v-45q0 -42 24 -42t24 42z" />
    <glyph glyph-name="seven.numerator" 
d="M22 614v86h241v-73l-109 -389h-101l104 376h-135z" />
    <glyph glyph-name="eight.numerator" 
d="M142 627q-23 0 -23 -39v-21q0 -39 23 -39t23 39v21q0 39 -23 39zM142 449q-28 0 -28 -53v-29q0 -54 28 -54t28 54v29q0 53 -28 53zM142 230q-61 0 -93.5 36t-32.5 105v20q0 75 47 101q-34 23 -34 79v17q0 57 29.5 89t83.5 32t83.5 -32t29.5 -89v-17q0 -56 -34 -79
q47 -26 47 -101v-20q0 -69 -32.5 -105t-93.5 -36z" />
    <glyph glyph-name="nine.numerator" 
d="M19 543v28q0 66 33 101.5t89 35.5q57 0 90 -35.5t33 -103.5v-24q0 -61 -21 -119l-67 -189h-104l60 168h-1q-50 0 -81 36t-31 102zM117 579v-45q0 -42 24 -42t24 42v45q0 42 -24 42t-24 -42z" />
    <glyph glyph-name="zero.denominator" 
d="M142 383q-24 0 -24 -45v-213q0 -45 24 -45t24 45v213q0 45 -24 45zM142 -8q-58 0 -90.5 35.5t-32.5 100.5v207q0 65 32.5 100.5t90.5 35.5t90.5 -35.5t32.5 -100.5v-207q0 -65 -32.5 -100.5t-90.5 -35.5z" />
    <glyph glyph-name="one.denominator" 
d="M261 0h-220v88h60v275l-60 -26v87l81 39h79v-375h60v-88z" />
    <glyph glyph-name="two.denominator" 
d="M161 325v14q0 37 -20 37q-21 0 -21 -37v-30l-99 2v24q0 66 31 101t89 35q119 0 119 -134v-12q0 -60 -30 -108l-82 -129h114v-88h-239v69l121 196q17 26 17 60z" />
    <glyph glyph-name="three.denominator" 
d="M117 155v-32q0 -23 5 -33t18 -10t18 10t5 33v50q0 44 -26 44q-13 0 -25 -12l-49 49l77 120h-109v89h219v-79l-63 -95q36 -4 55.5 -35t19.5 -83v-40q0 -139 -122 -139t-122 139v20z" />
    <glyph glyph-name="four.denominator" 
d="M92 172h52v116zM272 172v-88h-34v-84h-94v84h-133v76l133 303h94v-291h34z" />
    <glyph glyph-name="five.denominator" 
d="M165 112v79q0 40 -19 40q-16 0 -17 -22h-94v254h213v-89h-114v-67q17 12 36 12q94 0 94 -146v-40q0 -141 -122 -141t-122 141v15l99 3v-39q0 -32 23 -32t23 32z" />
    <glyph glyph-name="six.denominator" 
d="M265 157v-28q0 -66 -33 -101.5t-89 -35.5q-57 0 -90 35.5t-33 103.5v24q0 61 21 119l67 189h104l-60 -168h1q50 0 81 -36t31 -102zM167 121v45q0 42 -24 42t-24 -42v-45q0 -42 24 -42t24 42z" />
    <glyph glyph-name="seven.denominator" 
d="M22 377v86h241v-73l-109 -389h-101l104 376h-135z" />
    <glyph glyph-name="eight.denominator" 
d="M142 390q-23 0 -23 -39v-21q0 -39 23 -39t23 39v21q0 39 -23 39zM142 212q-28 0 -28 -53v-29q0 -54 28 -54t28 54v29q0 53 -28 53zM142 -7q-61 0 -93.5 36t-32.5 105v20q0 75 47 101q-34 23 -34 79v17q0 57 29.5 89t83.5 32t83.5 -32t29.5 -89v-17q0 -56 -34 -79
q47 -26 47 -101v-20q0 -69 -32.5 -105t-93.5 -36z" />
    <glyph glyph-name="nine.denominator" 
d="M19 306v28q0 66 33 101.5t89 35.5q57 0 90 -35.5t33 -103.5v-24q0 -60 -21 -119l-67 -189h-104l60 168h-1q-50 0 -81 36t-31 102zM117 342v-45q0 -42 24 -42t24 42v45q0 42 -24 42t-24 -42z" />
    </font>
</defs>
</svg>
