<?xml version="1.0" standalone="no"?>
<!DOCTYPE svg PUBLIC "-//W3C//DTD SVG 1.1//EN" "http://www.w3.org/Graphics/SVG/1.1/DTD/svg11.dtd" >
<svg>
<metadata>
Created by FontForge 20090622 at Mon Jul  9 17:33:11 2018
 By deploy user
Core Sans D 45 Medium
</metadata>
<defs>
<font id="CoreSansD45Medium" horiz-adv-x="366" >
  <font-face 
    font-family="Core Sans D 45 Medium"
    font-weight="400"
    font-stretch="normal"
    units-per-em="1000"
    panose-1="2 11 6 3 3 3 2 2 2 4"
    ascent="800"
    descent="-200"
    x-height="500"
    cap-height="700"
    bbox="-398 -238 1089 998"
    underline-thickness="24"
    underline-position="-183"
    unicode-range="U+0008-U+FB04"
  />
<missing-glyph horiz-adv-x="500" 
d="M430 0h-360v750h360v-750zM145 65h210v620h-210v-620z" />
    <glyph glyph-name="f_f" unicode="ff" horiz-adv-x="642" 
d="M293 620q-51 0 -68 -22t-17 -78v-20h192v4q0 116 40.5 162t155.5 46h26v-92h-35q-51 0 -68 -22t-17 -78v-20h120v-92h-120v-408h-102v408h-192v-408h-102v408h-71v92h71v4q0 116 40 162t146 46q37 0 67 -9l-13 -90q-22 7 -53 7z" />
    <glyph glyph-name="f_i" unicode="fi" horiz-adv-x="572" 
d="M35 408v92h71v4q0 116 40.5 162t155.5 46h26v-92h-35q-51 0 -68 -22t-17 -78v-20h294v-500h-102v408h-192v-408h-102v408h-71zM400 602v110h102v-110h-102z" />
    <glyph glyph-name="f_l" unicode="fl" horiz-adv-x="602" 
d="M35 408v92h71v13q0 111 43 155t135 44q63 0 111 -23v23h102v-550q0 -70 60 -70h20v-92h-21q-161 0 -161 152v448q-48 20 -100 20t-69.5 -21.5t-17.5 -78.5v-20h120v-92h-120v-408h-102v408h-71z" />
    <glyph glyph-name="f_f_i" unicode="ffi" horiz-adv-x="866" 
d="M208 408v-408h-102v408h-71v92h71v4q0 116 40 162t146 46q37 0 67 -9l-13 -90q-22 7 -53 7q-51 0 -68 -22t-17 -78v-20h192v4q0 116 40.5 162t155.5 46h26v-92h-35q-51 0 -68 -22t-17 -78v-20h294v-500h-102v408h-192v-408h-102v408h-192zM694 602v110h102v-110h-102z
" />
    <glyph glyph-name="f_f_l" unicode="ffl" horiz-adv-x="896" 
d="M208 408v-408h-102v408h-71v92h71v4q0 116 40 162t146 46q37 0 67 -9l-13 -90q-22 7 -53 7q-51 0 -68 -22t-17 -78v-20h192v13q0 111 43 155t135 44q63 0 111 -23v23h102v-550q0 -70 60 -70h20v-92h-21q-161 0 -161 152v448q-48 20 -100 20t-69.5 -21.5t-17.5 -78.5v-20
h120v-92h-120v-408h-102v408h-192z" />
    <glyph glyph-name=".notdef" horiz-adv-x="500" 
d="M430 0h-360v750h360v-750zM145 65h210v620h-210v-620z" />
    <glyph glyph-name=".null" horiz-adv-x="0" 
 />
    <glyph glyph-name=".null" horiz-adv-x="0" 
 />
    <glyph glyph-name=".null" horiz-adv-x="0" 
 />
    <glyph glyph-name="nonmarkingreturn" horiz-adv-x="333" 
 />
    <glyph glyph-name="CR" unicode="&#x9;" horiz-adv-x="237" 
 />
    <glyph glyph-name="CR" unicode="&#xd;" horiz-adv-x="237" 
 />
    <glyph glyph-name="space" unicode=" " horiz-adv-x="260" 
 />
    <glyph glyph-name="exclam" unicode="!" horiz-adv-x="302" 
d="M120 212l-20 388v100h102v-100l-20 -388h-62zM100 0v110h102v-110h-102z" />
    <glyph glyph-name="quotedbl" unicode="&#x22;" horiz-adv-x="416" 
d="M93 500l-15 200h92l-15 -200h-62zM261 500l-15 200h92l-15 -200h-62z" />
    <glyph glyph-name="numbersign" unicode="#" horiz-adv-x="688" 
d="M338 0l39 180h-140l-39 -180h-102l39 180h-95v92h115l34 157h-115v92h135l39 179h102l-39 -179h140l39 179h102l-39 -179h95v-92h-115l-34 -157h115v-92h-135l-39 -180h-102zM291 429l-34 -157h140l34 157h-140z" />
    <glyph glyph-name="dollar" unicode="$" horiz-adv-x="579" 
d="M335 -11v-76h-82v79q-81 13 -137 65.5t-76 135.5l111 20q24 -96 102 -120v221q-97 17 -145.5 68.5t-48.5 130.5q0 75 50 132.5t144 65.5v76h82v-80q74 -14 123 -61.5t65 -122.5l-110 -20q-20 77 -78 101v-206q204 -41 204 -205q0 -85 -52.5 -140.5t-151.5 -63.5zM431 193
q0 79 -96 105v-211q45 7 70.5 35t25.5 71zM167 513q0 -76 86 -99v199q-42 -8 -64 -36t-22 -64z" />
    <glyph glyph-name="percent" unicode="%" horiz-adv-x="822" 
d="M223 0l287 700h87l-287 -700h-87zM762 219v-85q0 -62 -37 -104t-104 -42q-66 0 -103.5 42t-37.5 104v85q0 62 37.5 104t103.5 42q67 0 104 -42t37 -104zM566 208v-63q0 -81 54 -81t54 81v63q0 81 -54 81t-54 -81zM342 566v-85q0 -62 -37 -104t-104 -42q-66 0 -103.5 42
t-37.5 104v85q0 62 37.5 104t103.5 42q67 0 104 -42t37 -104zM146 555v-63q0 -81 54 -81t54 81v63q0 81 -54 81t-54 -81z" />
    <glyph glyph-name="ampersand" unicode="&#x26;" horiz-adv-x="674" 
d="M65 184q0 54 29.5 100.5t102.5 107.5l14 11l-18 22q-68 80 -68 141q0 60 44.5 102.5t115.5 42.5q70 0 112.5 -41.5t42.5 -104.5q0 -87 -91 -163l-12 -10l148 -175q26 64 26 157l91 -6q-2 -138 -50 -230l117 -138h-117l-55 64q-79 -76 -209 -76q-103 0 -163 56t-60 140z
M289 80q91 0 146 57l-166 197l-17 -14q-48 -41 -70 -71t-22 -63q0 -45 35 -75.5t94 -30.5zM263 480l16 -20l12 10q52 44 52 90q0 25 -17 41.5t-42 16.5q-29 0 -45 -15.5t-16 -42.5q0 -33 40 -80z" />
    <glyph glyph-name="quotesingle" unicode="'" horiz-adv-x="248" 
d="M93 500l-15 200h92l-15 -200h-62z" />
    <glyph glyph-name="parenleft" unicode="(" horiz-adv-x="317" 
d="M277 -15l-30 -93q-77 26 -122 96t-45 166v383q0 96 45 166t122 96l30 -93q-43 -19 -69 -67.5t-26 -119.5v-347q0 -71 26 -119.5t69 -67.5z" />
    <glyph glyph-name="parenright" unicode=")" horiz-adv-x="317" 
d="M70 -108l-30 93q43 19 69 67.5t26 119.5v347q0 71 -26 119.5t-69 67.5l30 93q77 -26 122 -96t45 -166v-383q0 -96 -45 -166t-122 -96z" />
    <glyph glyph-name="asterisk" unicode="*" horiz-adv-x="512" 
d="M474 402l-148 -76l148 -78l-41 -73l-139 89l10 -164h-95l10 164l-140 -89l-41 73l149 78l-149 76l41 75l140 -90l-10 165h95l-10 -165l139 90z" />
    <glyph glyph-name="plus" unicode="+" horiz-adv-x="532" 
d="M50 285v82h170v185h92v-185h170v-82h-170v-185h-92v185h-170z" />
    <glyph glyph-name="comma" unicode="," horiz-adv-x="266" 
d="M192 115v-115q0 -49 -29.5 -79t-88.5 -36v44q37 6 52.5 21.5t15.5 49.5h-68v115h118z" />
    <glyph glyph-name="hyphen" unicode="-" horiz-adv-x="412" 
d="M50 280v92h312v-92h-312z" />
    <glyph glyph-name="period" unicode="." horiz-adv-x="266" 
d="M192 115v-115h-118v115h118z" />
    <glyph glyph-name="slash" unicode="/" horiz-adv-x="428" 
d="M428 783l-320 -876h-108l320 876h108z" />
    <glyph glyph-name="zero" unicode="0" horiz-adv-x="532" 
d="M50 229v242q0 113 58 177t158 64t158 -64t58 -177v-242q0 -113 -58 -177t-158 -64t-158 64t-58 177zM152 458v-216q0 -163 114 -163t114 163v216q0 163 -114 163t-114 -163z" />
    <glyph glyph-name="one" unicode="1" horiz-adv-x="532" 
d="M480 0h-381v92h140v501l-140 -60v97l150 70h92v-608h139v-92z" />
    <glyph glyph-name="two" unicode="2" horiz-adv-x="532" 
d="M55 489v12q0 90 57.5 150.5t153.5 60.5q94 0 152.5 -60.5t58.5 -150.5q0 -49 -17.5 -86t-53.5 -78l-218 -246h289v-91h-422v81l280 317q40 45 40 102q0 58 -30 89.5t-79 31.5t-79 -31.5t-30 -89.5v-19z" />
    <glyph glyph-name="three" unicode="3" horiz-adv-x="532" 
d="M266 79q51 0 82.5 34.5t31.5 102.5q0 70 -30.5 104.5t-84.5 34.5q-22 0 -49 -10l-51 56l169 208h-264v91h385v-87l-152 -187q82 -1 130.5 -57t48.5 -154q0 -101 -56.5 -164t-159.5 -63t-159.5 63t-56.5 164v1l102 8v-8q0 -68 31.5 -102.5t82.5 -34.5z" />
    <glyph glyph-name="four" unicode="4" horiz-adv-x="532" 
d="M497 241v-94h-76v-147h-102v147h-285v94l271 459h116v-459h76zM145 241h174v296z" />
    <glyph glyph-name="five" unicode="5" horiz-adv-x="532" 
d="M52 216l102 8v-4q0 -67 29 -104t85 -37t85 38t29 109q0 74 -30.5 110t-85.5 36q-53 0 -82 -43h-102v371h364v-91h-262v-189q40 43 104 43q89 0 142.5 -62t53.5 -176q0 -111 -57 -174t-159 -63q-101 0 -158 61.5t-58 166.5z" />
    <glyph glyph-name="six" unicode="6" horiz-adv-x="532" 
d="M47 210q0 53 22 100l188 390h112l-133 -274q12 5 32 5q97 0 159 -64.5t62 -157.5t-62 -157t-159 -64t-159 64.5t-62 157.5zM149 210q0 -59 33.5 -95t85.5 -36t85.5 36t33.5 95q0 60 -33 95t-86 35t-86 -35.5t-33 -94.5z" />
    <glyph glyph-name="seven" unicode="7" horiz-adv-x="532" 
d="M56 608v92h421v-81l-229 -619h-108l225 608h-309z" />
    <glyph glyph-name="eight" unicode="8" horiz-adv-x="532" 
d="M45 210q0 58 28.5 106.5t75.5 70.5q-34 21 -56.5 59t-22.5 80q0 78 55 132t141 54t141 -54.5t55 -132.5q0 -42 -22.5 -80t-57.5 -58q47 -23 76 -71.5t29 -106.5q0 -93 -62 -157t-159 -64t-159 64.5t-62 157.5zM148 209q0 -56 33.5 -93.5t85.5 -37.5t85.5 37.5t33.5 93.5
t-33.5 94t-85.5 38t-85.5 -38t-33.5 -94zM172 526q0 -41 26 -68t68 -27t68 27t26 68t-26 68.5t-68 27.5t-68 -27.5t-26 -68.5z" />
    <glyph glyph-name="nine" unicode="9" horiz-adv-x="532" 
d="M485 490q0 -53 -22 -100l-188 -390h-112l133 274q-12 -5 -32 -5q-97 0 -159 64.5t-62 157.5t62 157t159 64t159 -64.5t62 -157.5zM383 490q0 59 -33.5 95t-85.5 36t-85.5 -36t-33.5 -95q0 -60 33 -95t86 -35t86 35.5t33 94.5z" />
    <glyph glyph-name="colon" unicode=":" horiz-adv-x="266" 
d="M192 115v-115h-118v115h118zM192 549v-115h-118v115h118z" />
    <glyph glyph-name="semicolon" unicode=";" horiz-adv-x="266" 
d="M192 549v-115h-118v115h118zM192 115v-115q0 -49 -29.5 -79t-88.5 -36v44q37 6 52.5 21.5t15.5 49.5h-68v115h118z" />
    <glyph glyph-name="less" unicode="&#x3c;" horiz-adv-x="532" 
d="M472 97l-412 185v88l412 185v-92l-312 -137l312 -137v-92z" />
    <glyph glyph-name="equal" unicode="=" horiz-adv-x="532" 
d="M50 372v82h432v-82h-432zM50 198v82h432v-82h-432z" />
    <glyph glyph-name="greater" unicode="&#x3e;" horiz-adv-x="532" 
d="M472 282l-412 -185v92l312 137l-312 137v92l412 -185v-88z" />
    <glyph glyph-name="question" unicode="?" horiz-adv-x="522" 
d="M152 510l-102 9q8 83 63.5 138t147.5 55q91 0 146 -55.5t55 -143.5q0 -58 -21 -97.5t-67 -80.5q-36 -32 -52 -60.5t-16 -69.5v-24h-102v32q0 54 19 91t72 83q37 32 51 59t14 64q0 53 -26.5 82t-73.5 29q-46 0 -74 -28.5t-34 -82.5zM204 0v110h102v-110h-102z" />
    <glyph glyph-name="at" unicode="@" horiz-adv-x="744" 
d="M271 215v49q0 89 47 148t134 59q88 0 132 -64v11q0 93 -60.5 150t-151.5 57t-151.5 -57t-60.5 -150v-313q0 -93 60.5 -150t151.5 -57q54 0 98 26l44 -76q-65 -37 -142 -37q-123 0 -212.5 79t-89.5 192v359q0 113 89.5 192t212.5 79t212.5 -79t89.5 -192v-191
q0 -116 -52.5 -179t-149.5 -63q-96 0 -148.5 59t-52.5 148zM584 240v76q-36 63 -102 63q-109 0 -109 -135v-9q0 -135 113 -135q44 0 71 37t27 103z" />
    <glyph glyph-name="A" unicode="A" horiz-adv-x="594" 
d="M471 0l-50 157h-249l-49 -157h-118l238 700h108l238 -700h-118zM297 554l-94 -300h188z" />
    <glyph glyph-name="B" unicode="B" horiz-adv-x="583" 
d="M320 0h-250v700h230q91 0 157 -48.5t66 -145.5q0 -51 -24 -87.5t-66 -53.5q49 -18 79.5 -61.5t30.5 -99.5q0 -100 -64 -152t-159 -52zM308 312h-130v-215h127q130 0 130 107q0 52 -35 80t-92 28zM178 409h107q130 0 130 97t-130 97h-107v-194z" />
    <glyph glyph-name="C" unicode="C" horiz-adv-x="591" 
d="M50 264v172q0 122 69.5 199t182.5 77q100 0 167.5 -60.5t81.5 -160.5l-107 -18q-13 70 -49.5 106t-92.5 36q-67 0 -105.5 -51.5t-38.5 -145.5v-136q0 -94 38.5 -145.5t105.5 -51.5q56 0 92.5 36t49.5 106l107 -18q-14 -100 -81.5 -160.5t-167.5 -60.5q-113 0 -182.5 77
t-69.5 199z" />
    <glyph glyph-name="D" unicode="D" horiz-adv-x="597" 
d="M70 0v700h220q114 0 183 -71.5t69 -192.5v-172q0 -121 -69 -192.5t-183 -71.5h-220zM178 603v-506h106q69 0 109.5 46.5t40.5 138.5v136q0 92 -40.5 138.5t-109.5 46.5h-106z" />
    <glyph glyph-name="E" unicode="E" horiz-adv-x="545" 
d="M70 0v700h430v-97h-322v-195h281v-97h-281v-214h322v-97h-430z" />
    <glyph glyph-name="F" unicode="F" horiz-adv-x="525" 
d="M70 0v700h430v-97h-322v-205h291v-97h-291v-301h-108z" />
    <glyph glyph-name="G" unicode="G" horiz-adv-x="599" 
d="M302 278v96h252v-110q0 -122 -69.5 -199t-182.5 -77t-182.5 77t-69.5 199v172q0 122 69.5 199t182.5 77q100 0 167.5 -60.5t81.5 -160.5l-107 -18q-13 70 -49.5 106t-92.5 36q-67 0 -105.5 -51.5t-38.5 -145.5v-136q0 -94 38.5 -145.5t105.5 -51.5q66 0 105 48.5
t39 128.5v16h-144z" />
    <glyph glyph-name="H" unicode="H" horiz-adv-x="620" 
d="M442 0v311h-264v-311h-108v700h108v-292h264v292h108v-700h-108z" />
    <glyph glyph-name="I" unicode="I" horiz-adv-x="248" 
d="M178 700v-700h-108v700h108z" />
    <glyph glyph-name="J" unicode="J" horiz-adv-x="518" 
d="M350 232v468h108v-486q0 -111 -59.5 -168.5t-161.5 -57.5q-82 0 -139.5 47.5t-75.5 136.5l108 17q13 -56 42.5 -80t65.5 -24q112 0 112 147z" />
    <glyph glyph-name="K" unicode="K" horiz-adv-x="587" 
d="M522 700v-4q0 -111 -34.5 -184t-129.5 -135l229 -377h-121l-192 322l-96 -62v-260h-108v700h108v-315l79 51q99 64 128.5 118.5t29.5 141.5v4h107z" />
    <glyph glyph-name="L" unicode="L" horiz-adv-x="515" 
d="M70 0v700h108v-603h322v-97h-430z" />
    <glyph glyph-name="M" unicode="M" horiz-adv-x="760" 
d="M335 184l-157 289v-473h-108v700h93l217 -398l217 398h93v-700h-108v473l-157 -289h-90z" />
    <glyph glyph-name="N" unicode="N" horiz-adv-x="650" 
d="M480 0l-302 499v-499h-108v700h100l302 -499v499h108v-700h-100z" />
    <glyph glyph-name="O" unicode="O" horiz-adv-x="604" 
d="M50 264v172q0 122 69.5 199t182.5 77t182.5 -77t69.5 -199v-172q0 -122 -69.5 -199t-182.5 -77t-182.5 77t-69.5 199zM158 418v-136q0 -94 38.5 -145.5t105.5 -51.5t105.5 51.5t38.5 145.5v136q0 94 -38.5 145.5t-105.5 51.5t-105.5 -51.5t-38.5 -145.5z" />
    <glyph glyph-name="P" unicode="P" horiz-adv-x="583" 
d="M320 272h-142v-272h-108v700h250q89 0 156 -56t67 -158q0 -103 -67 -158.5t-156 -55.5zM178 369h127q58 0 94 30.5t36 86.5q0 57 -36 87t-94 30h-127v-234z" />
    <glyph glyph-name="Q" unicode="Q" horiz-adv-x="604" 
d="M50 264v172q0 122 69.5 199t182.5 77t182.5 -77t69.5 -199v-172q0 -95 -43 -163l75 -65l-56 -65l-76 65q-63 -48 -152 -48q-113 0 -182.5 77t-69.5 199zM305 165l57 66l66 -58q18 45 18 109v136q0 94 -38.5 145.5t-105.5 51.5t-105.5 -51.5t-38.5 -145.5v-136
q0 -94 38.5 -145.5t105.5 -51.5q41 0 72 20z" />
    <glyph glyph-name="R" unicode="R" horiz-adv-x="594" 
d="M456 0l-160 282h-118v-282h-108v700h250q89 0 156 -55t67 -154q0 -74 -38.5 -123.5t-99.5 -71.5l169 -296h-118zM178 379h127q58 0 94 29.5t36 82.5t-36 82.5t-94 29.5h-127v-224z" />
    <glyph glyph-name="S" unicode="S" horiz-adv-x="579" 
d="M539 193q0 -91 -60 -148t-173 -57q-102 0 -172 54.5t-94 150.5l111 20q33 -128 155 -128q57 0 91 29t34 79q0 45 -29.5 72t-93.5 39l-56 10q-96 17 -144.5 68.5t-48.5 130.5q0 81 57.5 140t163.5 59q95 0 159.5 -50t83.5 -139l-110 -20q-28 112 -133 112
q-54 0 -83.5 -29.5t-29.5 -72.5q0 -83 105 -103l59 -11q208 -39 208 -206z" />
    <glyph glyph-name="T" unicode="T" horiz-adv-x="522" 
d="M15 603v97h492v-97h-192v-603h-108v603h-192z" />
    <glyph glyph-name="U" unicode="U" horiz-adv-x="616" 
d="M170 700v-424q0 -191 138 -191t138 191v424h108v-442q0 -123 -65 -196.5t-181 -73.5t-181 73.5t-65 196.5v442h108z" />
    <glyph glyph-name="V" unicode="V" horiz-adv-x="584" 
d="M292 173l164 527h118l-228 -700h-108l-228 700h118z" />
    <glyph glyph-name="W" unicode="W" horiz-adv-x="936" 
d="M667 194l136 506h118l-198 -700h-108l-147 514l-147 -514h-108l-198 700h118l136 -506l146 506h106z" />
    <glyph glyph-name="X" unicode="X" horiz-adv-x="606" 
d="M20 0l215 362l-200 338h121l147 -248l147 248h121l-201 -338l216 -362h-121l-162 271l-162 -271h-121z" />
    <glyph glyph-name="Y" unicode="Y" horiz-adv-x="574" 
d="M287 420l154 280h118l-218 -384v-316h-108v316l-218 384h118z" />
    <glyph glyph-name="Z" unicode="Z" horiz-adv-x="520" 
d="M40 87l315 516h-305v97h430v-87l-315 -516h315v-97h-440v87z" />
    <glyph glyph-name="bracketleft" unicode="[" horiz-adv-x="330" 
d="M80 -93v876h210v-91h-108v-694h108v-91h-210z" />
    <glyph glyph-name="backslash" unicode="\" horiz-adv-x="428" 
d="M320 -93l-320 876h108l320 -876h-108z" />
    <glyph glyph-name="bracketright" unicode="]" horiz-adv-x="330" 
d="M250 783v-876h-210v91h108v694h-108v91h210z" />
    <glyph glyph-name="asciicircum" unicode="^" horiz-adv-x="492" 
d="M300 700l162 -212h-102l-114 144l-114 -144h-102l162 212h108z" />
    <glyph glyph-name="underscore" unicode="_" horiz-adv-x="500" 
d="M0 -172v72h500v-72h-500z" />
    <glyph glyph-name="grave" unicode="`" horiz-adv-x="380" 
d="M229 569l-115 161h107l85 -161h-77z" />
    <glyph glyph-name="a" unicode="a" horiz-adv-x="509" 
d="M40 130v15q0 64 52 106.5t162 42.5h97v13q0 55 -25.5 84t-70.5 29q-67 0 -99 -65l-101 28q29 60 82 94.5t122 34.5q90 0 142 -52.5t52 -137.5v-322h-102v52q-48 -64 -141 -64q-78 0 -124 40.5t-46 101.5zM228 80q40 0 73.5 17t49.5 46v69h-128q-34 0 -57.5 -18.5
t-23.5 -48.5v-5q0 -26 21.5 -43t64.5 -17z" />
    <glyph glyph-name="b" unicode="b" horiz-adv-x="520" 
d="M475 305v-110q0 -89 -47 -148t-134 -59q-42 0 -78 18t-54 46v-52h-102v712h102v-264q18 28 54 46t78 18q87 0 134 -59t47 -148zM260 420q-65 0 -98 -63v-214q33 -63 98 -63q113 0 113 135v70q0 135 -113 135z" />
    <glyph glyph-name="c" unicode="c" horiz-adv-x="495" 
d="M45 195v110q0 84 61 145.5t152 61.5q76 0 130 -45t72 -114l-103 -17q-9 41 -36 62.5t-63 21.5q-47 0 -79 -35t-32 -100v-70q0 -65 32 -100t79 -35q36 0 63 21.5t36 62.5l103 -17q-18 -69 -72 -114t-130 -45q-91 0 -152 61.5t-61 145.5z" />
    <glyph glyph-name="d" unicode="d" horiz-adv-x="520" 
d="M45 195v110q0 89 47 148t134 59q42 0 78 -18t54 -46v264h102v-712h-102v52q-18 -28 -54 -46t-78 -18q-87 0 -134 59t-47 148zM260 420q-113 0 -113 -135v-70q0 -135 113 -135q65 0 98 63v214q-33 63 -98 63z" />
    <glyph glyph-name="e" unicode="e" horiz-adv-x="516" 
d="M471 212h-324q1 -65 32 -98.5t82 -33.5q75 0 96 65l104 -17q-21 -65 -73 -102.5t-127 -37.5q-96 0 -156 61t-60 146v110q0 84 61 145.5t152 61.5t152 -61.5t61 -145.5v-93zM258 420q-46 0 -77.5 -32.5t-33.5 -93.5h222q-3 61 -34.5 93.5t-76.5 32.5z" />
    <glyph glyph-name="f" unicode="f" horiz-adv-x="348" 
d="M35 408v92h71v4q0 116 40.5 162t155.5 46h26v-92h-35q-51 0 -68 -22t-17 -78v-20h120v-92h-120v-408h-102v408h-71z" />
    <glyph glyph-name="g" unicode="g" horiz-adv-x="520" 
d="M45 195v110q0 89 47 148t134 59q42 0 78 -18t54 -46v52h102v-505q0 -106 -53 -166.5t-148 -60.5q-70 0 -121.5 35t-73.5 97l101 25q25 -65 94 -65q99 0 99 140v52q-18 -28 -54 -46t-78 -18q-87 0 -134 59t-47 148zM260 420q-113 0 -113 -135v-70q0 -135 113 -135
q65 0 98 63v214q-33 63 -98 63z" />
    <glyph glyph-name="h" unicode="h" horiz-adv-x="532" 
d="M476 305v-305h-102v285q0 69 -23 102t-81 33q-33 0 -63.5 -20t-44.5 -53v-347h-102v712h102v-274q19 33 57.5 53.5t84.5 20.5q83 0 127.5 -55t44.5 -152z" />
    <glyph glyph-name="i" unicode="i" horiz-adv-x="242" 
d="M70 0v500h102v-500h-102zM70 602v110h102v-110h-102z" />
    <glyph glyph-name="j" unicode="j" horiz-adv-x="252" 
d="M80 602v110h102v-110h-102zM80 -50v550h102v-560q0 -152 -161 -152h-41v92h40q60 0 60 70z" />
    <glyph glyph-name="k" unicode="k" horiz-adv-x="486" 
d="M435 500v-5q0 -78 -25.5 -125.5t-87.5 -92.5l169 -277h-115l-133 225l-81 -53v-172h-102v712h102v-425l22 14q87 57 118 94.5t31 99.5v5h102z" />
    <glyph glyph-name="l" unicode="l" horiz-adv-x="277" 
d="M172 712v-550q0 -70 60 -70h20v-92h-21q-161 0 -161 152v560h102z" />
    <glyph glyph-name="m" unicode="m" horiz-adv-x="846" 
d="M790 305v-305h-102v285q0 69 -23 102t-81 33q-31 0 -60.5 -22.5t-49.5 -61.5q2 -20 2 -31v-305h-102v285q0 69 -23 102t-81 33q-33 0 -63.5 -20t-44.5 -53v-347h-102v500h102v-62q19 33 57.5 53.5t84.5 20.5q105 0 148 -89q65 89 166 89q83 0 127.5 -55t44.5 -152z" />
    <glyph glyph-name="n" unicode="n" horiz-adv-x="532" 
d="M60 0v500h102v-62q19 33 57.5 53.5t84.5 20.5q83 0 127.5 -55t44.5 -152v-305h-102v285q0 69 -23 102t-81 33q-33 0 -63.5 -20t-44.5 -53v-347h-102z" />
    <glyph glyph-name="o" unicode="o" horiz-adv-x="516" 
d="M45 195v110q0 84 61 145.5t152 61.5t152 -61.5t61 -145.5v-110q0 -84 -61 -145.5t-152 -61.5t-152 61.5t-61 145.5zM147 285v-70q0 -65 32 -100t79 -35t79 35t32 100v70q0 65 -32 100t-79 35t-79 -35t-32 -100z" />
    <glyph glyph-name="p" unicode="p" horiz-adv-x="520" 
d="M475 305v-110q0 -89 -47 -148t-134 -59q-42 0 -78 18t-54 46v-270h-102v718h102v-52q18 28 54 46t78 18q87 0 134 -59t47 -148zM260 420q-65 0 -98 -63v-214q33 -63 98 -63q113 0 113 135v70q0 135 -113 135z" />
    <glyph glyph-name="q" unicode="q" horiz-adv-x="520" 
d="M45 195v110q0 89 47 148t134 59q42 0 78 -18t54 -46v52h102v-718h-102v270q-18 -28 -54 -46t-78 -18q-87 0 -134 59t-47 148zM260 420q-113 0 -113 -135v-70q0 -135 113 -135q65 0 98 63v214q-33 63 -98 63z" />
    <glyph glyph-name="r" unicode="r" horiz-adv-x="375" 
d="M60 0v500h102v-52q50 64 137 64q33 0 61 -12v-93q-38 13 -75 13q-80 0 -123 -68v-352h-102z" />
    <glyph glyph-name="s" unicode="s" horiz-adv-x="481" 
d="M441 142q0 -68 -50 -111t-133 -43t-140.5 41t-77.5 117l104 18q26 -84 112 -84q38 0 60.5 17t22.5 45q0 57 -76 68l-45 7q-164 26 -164 148q0 65 48 106t130 41q74 0 127.5 -38.5t72.5 -106.5l-104 -18q-7 32 -33 51.5t-62 19.5q-35 0 -56 -16t-21 -41q0 -49 78 -62
l47 -8q89 -15 124.5 -51.5t35.5 -99.5z" />
    <glyph glyph-name="t" unicode="t" horiz-adv-x="353" 
d="M193 408v-246q0 -70 60 -70h70v-92h-71q-161 0 -161 152v256h-71v92h71v142h102v-142h120v-92h-120z" />
    <glyph glyph-name="u" unicode="u" horiz-adv-x="532" 
d="M56 195v305h102v-285q0 -69 23 -102t81 -33q33 0 63.5 20t44.5 53v347h102v-500h-102v62q-19 -33 -57.5 -53.5t-84.5 -20.5q-83 0 -127.5 55t-44.5 152z" />
    <glyph glyph-name="v" unicode="v" horiz-adv-x="491" 
d="M484 500l-185 -500h-107l-185 500h107l131 -376l132 376h107z" />
    <glyph glyph-name="w" unicode="w" horiz-adv-x="786" 
d="M340 500h106l112 -358l111 358h107l-165 -500h-107l-111 358l-111 -358h-107l-165 500h107l111 -358z" />
    <glyph glyph-name="x" unicode="x" horiz-adv-x="472" 
d="M346 0l-110 175l-110 -175h-116l162 257l-152 243h116l100 -161l100 161h116l-152 -243l162 -257h-116z" />
    <glyph glyph-name="y" unicode="y" horiz-adv-x="497" 
d="M176 -65l30 86l-196 479h110l134 -345l123 345h110l-219 -598q-25 -68 -59.5 -90.5t-97.5 -22.5h-39v92h34q26 0 42.5 11.5t27.5 42.5z" />
    <glyph glyph-name="z" unicode="z" horiz-adv-x="476" 
d="M430 500v-82l-261 -326h271v-92h-404v82l261 326h-250v92h383z" />
    <glyph glyph-name="braceleft" unicode="{" horiz-adv-x="342" 
d="M120 59v170q0 70 -60 70h-20v92h20q60 0 60 70v170q0 152 161 152h21v-91h-20q-60 0 -60 -70v-171q0 -36 -16.5 -65.5t-46.5 -40.5q30 -11 46.5 -40.5t16.5 -65.5v-171q0 -70 60 -70h20v-91h-21q-161 0 -161 152z" />
    <glyph glyph-name="bar" unicode="|" horiz-adv-x="302" 
d="M100 -93v876h102v-876h-102z" />
    <glyph glyph-name="braceright" unicode="}" horiz-adv-x="342" 
d="M222 229v-170q0 -152 -161 -152h-21v91h20q60 0 60 70v171q0 36 16.5 65.5t46.5 40.5q-30 11 -46.5 40.5t-16.5 65.5v171q0 70 -60 70h-20v91h21q161 0 161 -152v-170q0 -70 60 -70h20v-92h-20q-60 0 -60 -70z" />
    <glyph glyph-name="asciitilde" unicode="~" horiz-adv-x="532" 
d="M355 240q-34 0 -62.5 14t-44 31t-34.5 31t-36 14q-55 0 -59 -86l-92 7q2 80 43 121t106 41q34 0 62.5 -14t44 -31t34.5 -31t36 -14q55 0 59 86l92 -7q-2 -80 -43 -121t-106 -41z" />
    <glyph glyph-name="uni00A0" unicode="&#xa0;" horiz-adv-x="260" 
 />
    <glyph glyph-name="exclamdown" unicode="&#xa1;" horiz-adv-x="302" 
d="M182 288l20 -388v-100h-102v100l20 388h62zM202 500v-110h-102v110h102z" />
    <glyph glyph-name="cent" unicode="&#xa2;" horiz-adv-x="495" 
d="M287 589v-79q64 -10 110.5 -53t62.5 -104l-103 -17q-14 63 -70 80v-332q55 15 70 80l103 -17q-16 -61 -62.5 -104t-110.5 -53v-79h-72v81q-76 13 -123 70.5t-47 132.5v110q0 74 47.5 132t122.5 71v81h72zM147 215q0 -97 68 -127v323q-68 -30 -68 -126v-70z" />
    <glyph glyph-name="sterling" unicode="&#xa3;" horiz-adv-x="586" 
d="M45 287v84h60v111q0 109 57.5 169.5t156.5 60.5q187 0 227 -201l-107 -18q-24 122 -119 122q-107 0 -107 -151v-93h193v-84h-193v-40q0 -106 -40 -150h373v-97h-496v89q55 54 55 141v57h-60z" />
    <glyph glyph-name="currency" unicode="&#xa4;" horiz-adv-x="638" 
d="M539 326q0 -69 -40 -125l89 -88l-65 -65l-92 91q-50 -29 -112 -29q-63 0 -113 29l-91 -91l-65 65l88 88q-39 55 -39 125q0 69 39 124l-88 89l65 65l91 -92q52 30 113 30q60 0 112 -30l92 92l65 -65l-89 -89q40 -56 40 -124zM447 326q0 58 -37.5 96t-90.5 38t-90.5 -38
t-37.5 -96t37.5 -96t90.5 -38t90.5 38t37.5 96z" />
    <glyph glyph-name="yen" unicode="&#xa5;" horiz-adv-x="574" 
d="M93 195v67h140v54h-140v67h102l-180 317h118l154 -280l154 280h118l-180 -317h102v-67h-140v-54h140v-67h-140v-195h-108v195h-140z" />
    <glyph glyph-name="brokenbar" unicode="&#xa6;" horiz-adv-x="302" 
d="M100 395v388h102v-388h-102zM100 -93v388h102v-388h-102z" />
    <glyph glyph-name="section" unicode="&#xa7;" horiz-adv-x="483" 
d="M45 295q0 88 62 137q-52 40 -52 118q0 74 48 118t130 44q74 0 125 -38t71 -107l-104 -18q-7 32 -31.5 51.5t-60.5 19.5t-56 -18.5t-20 -53.5q0 -33 19.5 -50.5t60.5 -27.5l26 -6q93 -22 134 -66t41 -131q0 -88 -62 -137q52 -41 52 -118q0 -74 -48 -118t-130 -44
q-74 0 -125 38t-71 107l104 18q7 -32 31.5 -51.5t60.5 -19.5t56 18.5t20 53.5q0 33 -19.5 50.5t-60.5 27.5l-26 6q-93 22 -134 66t-41 131zM336 267q0 51 -19.5 76.5t-71.5 37.5l-28 6q-17 3 -28 7q-42 -33 -42 -99q0 -51 19.5 -76.5t71.5 -37.5l28 -6q5 -1 14.5 -3.5
l13.5 -3.5q42 33 42 99z" />
    <glyph glyph-name="dieresis" unicode="&#xa8;" horiz-adv-x="380" 
d="M152 701v-105h-108v105h108zM336 701v-105h-108v105h108z" />
    <glyph glyph-name="copyright" unicode="&#xa9;" horiz-adv-x="754" 
d="M223 299v102q0 76 42 121t115 45q63 0 104 -36t49 -97l-78 -13q-14 73 -73 73q-75 0 -75 -104v-80q0 -104 75 -104q59 0 73 73l78 -13q-8 -61 -49 -97t-104 -36q-73 0 -115 45t-42 121zM377 -12q-149 0 -240.5 92t-91.5 250v40q0 158 91.5 250t240.5 92t240.5 -92
t91.5 -250v-40q0 -158 -91.5 -250t-240.5 -92zM377 660q-129 0 -202.5 -79.5t-73.5 -218.5v-24q0 -139 73.5 -218.5t202.5 -79.5t202.5 79.5t73.5 218.5v24q0 139 -73.5 218.5t-202.5 79.5z" />
    <glyph glyph-name="ordfeminine" unicode="&#xaa;" horiz-adv-x="402" 
d="M39 429v11q0 49 39.5 78.5t112.5 29.5h74v15q0 72 -66 72q-45 0 -66 -41l-82 19q19 43 58 69t94 26q71 0 109 -38.5t38 -94.5v-242h-85v32q-36 -41 -96 -41q-57 0 -93.5 29.5t-36.5 75.5zM182 397q55 0 83 38v46h-87q-25 0 -39.5 -11t-14.5 -31v-4q0 -38 58 -38z" />
    <glyph glyph-name="guillemotleft" unicode="&#xab;" horiz-adv-x="515" 
d="M258 396l-134 -84l134 -84v-88l-218 143v58l218 143v-88zM475 396l-134 -84l134 -84v-88l-218 143v58l218 143v-88z" />
    <glyph glyph-name="logicalnot" unicode="&#xac;" horiz-adv-x="532" 
d="M45 285v82h432v-242h-92v160h-340z" />
    <glyph glyph-name="uni00AD" unicode="&#xad;" horiz-adv-x="412" 
d="M50 280v92h312v-92h-312z" />
    <glyph glyph-name="registered" unicode="&#xae;" horiz-adv-x="754" 
d="M377 -12q-149 0 -240.5 92t-91.5 250v40q0 158 91.5 250t240.5 92t240.5 -92t91.5 -250v-40q0 -158 -91.5 -250t-240.5 -92zM377 660q-129 0 -202.5 -79.5t-73.5 -218.5v-24q0 -139 73.5 -218.5t202.5 -79.5t202.5 79.5t73.5 218.5v24q0 139 -73.5 218.5t-202.5 79.5z
M465 141l-90 162h-55v-162h-85v418h166q54 0 95.5 -34.5t41.5 -94.5q0 -44 -23.5 -74t-60.5 -44l99 -171h-88zM319 379h66q68 0 68 53q0 54 -68 54h-66v-107z" />
    <glyph glyph-name="macron" unicode="&#xaf;" horiz-adv-x="380" 
d="M44 609v78h292v-78h-292z" />
    <glyph glyph-name="degree" unicode="&#xb0;" horiz-adv-x="346" 
d="M306 573q0 -60 -36 -97.5t-97 -37.5t-97 37.5t-36 97.5t36 97.5t97 37.5t97 -37.5t36 -97.5zM223 573q0 26 -13.5 41.5t-36.5 15.5t-36.5 -15.5t-13.5 -41.5t13.5 -41.5t36.5 -15.5t36.5 15.5t13.5 41.5z" />
    <glyph glyph-name="plusminus" unicode="&#xb1;" horiz-adv-x="532" 
d="M50 315v82h170v175h92v-175h170v-82h-170v-175h-92v175h-170zM50 0v82h432v-82h-432z" />
    <glyph glyph-name="twosuperior" unicode="&#xb2;" 
d="M39 549v16q0 62 39.5 102.5t108.5 40.5q65 0 106 -40t41 -103q0 -58 -49 -112l-124 -138h173v-78h-295v65l180 204q23 26 23 58q0 31 -15 48.5t-40 17.5q-26 0 -41 -17t-15 -49v-22z" />
    <glyph glyph-name="threesuperior" unicode="&#xb3;" 
d="M149 449l-43 48l98 125h-157v78h271v-68l-90 -112q50 -7 79 -46t29 -100q0 -62 -42.5 -103.5t-107.5 -41.5q-67 0 -109 41.5t-42 103.5v13l92 7v-19q0 -33 16 -50.5t43 -17.5q25 0 41.5 17.5t16.5 50.5q0 83 -59 83q-15 0 -36 -9z" />
    <glyph glyph-name="acute" unicode="&#xb4;" horiz-adv-x="380" 
d="M266 730l-115 -161h-77l85 161h107z" />
    <glyph glyph-name="mu" unicode="&#xb5;" horiz-adv-x="536" 
d="M162 500v-285q0 -69 23 -102t81 -33q33 0 63.5 20t44.5 53v347h102v-500h-102v62q-20 -34 -52.5 -54t-68.5 -20q-60 0 -91 39v-245h-102v718h102z" />
    <glyph glyph-name="paragraph" unicode="&#xb6;" horiz-adv-x="502" 
d="M237 700h195v-831h-63v756h-45v-756h-66v398h-9q-94 0 -149 57t-55 157v7q0 102 49 157t143 55z" />
    <glyph glyph-name="periodcentered" unicode="&#xb7;" horiz-adv-x="266" 
d="M192 384v-115h-118v115h118z" />
    <glyph glyph-name="cedilla" unicode="&#xb8;" horiz-adv-x="380" 
d="M78 -196l44 58q26 -21 55 -21q38 0 38 29q0 34 -78 37l-6 8l35 85h80l-20 -47q75 -24 75 -92q0 -44 -31 -71.5t-87 -27.5q-65 0 -105 42z" />
    <glyph glyph-name="onesuperior" unicode="&#xb9;" 
d="M334 237h-268v78h88v290l-88 -37v83l105 49h75v-385h88v-78z" />
    <glyph glyph-name="ordmasculine" unicode="&#xba;" horiz-adv-x="402" 
d="M40 475v82q0 62 45.5 106.5t115.5 44.5t115.5 -44.5t45.5 -106.5v-82q0 -62 -45.5 -106.5t-115.5 -44.5t-115.5 44.5t-45.5 106.5zM125 542v-52q0 -45 20.5 -69t55.5 -24t55.5 24t20.5 69v52q0 45 -20.5 69t-55.5 24t-55.5 -24t-20.5 -69z" />
    <glyph glyph-name="guillemotright" unicode="&#xbb;" horiz-adv-x="515" 
d="M391 312l-134 84v88l218 -143v-58l-218 -143v88zM174 312l-134 84v88l218 -143v-58l-218 -143v88z" />
    <glyph glyph-name="onequarter" unicode="&#xbc;" horiz-adv-x="930" 
d="M769 171h-85l85 143v-143zM907 93v78h-48v292h-96l-177 -299v-71h183v-93h90v93h48zM682 700l-342 -700h-88l342 700h88zM334 237h-268v78h88v290l-88 -37v83l105 49h75v-385h88v-78z" />
    <glyph glyph-name="onehalf" unicode="&#xbd;" horiz-adv-x="930" 
d="M603 312v16q0 62 39.5 102.5t108.5 40.5q65 0 106 -40t41 -103q0 -58 -49 -112l-124 -138h173v-78h-295v65l180 204q23 26 23 58q0 31 -15 48.5t-40 17.5q-26 0 -41 -17t-15 -49v-22zM682 700l-342 -700h-88l342 700h88zM334 237h-268v78h88v290l-88 -37v83l105 49h75
v-385h88v-78z" />
    <glyph glyph-name="threequarters" unicode="&#xbe;" horiz-adv-x="930" 
d="M769 171h-85l85 143v-143zM907 93v78h-48v292h-96l-177 -299v-71h183v-93h90v93h48zM682 700l-342 -700h-88l342 700h88zM106 497l43 -48q21 9 36 9q59 0 59 -83q0 -33 -16.5 -50.5t-41.5 -17.5q-27 0 -43 17.5t-16 50.5v19l-92 -7v-13q0 -62 42 -103.5t109 -41.5
q65 0 107.5 41.5t42.5 103.5q0 61 -29 100t-79 46l90 112v68h-271v-78h157z" />
    <glyph glyph-name="questiondown" unicode="&#xbf;" horiz-adv-x="522" 
d="M370 -10l102 -9q-8 -83 -63.5 -138t-147.5 -55q-91 0 -146 55.5t-55 143.5q0 58 21 97.5t67 80.5q36 32 52 60.5t16 69.5v24h102v-32q0 -54 -19 -91t-72 -83q-37 -32 -51 -59t-14 -64q0 -53 26.5 -82t73.5 -29q46 0 74 28.5t34 82.5zM318 500v-110h-102v110h102z" />
    <glyph glyph-name="Agrave" unicode="&#xc0;" horiz-adv-x="594" 
d="M471 0l-50 157h-249l-49 -157h-118l238 700h108l238 -700h-118zM297 554l-94 -300h188zM276 763l-115 161h107l85 -161h-77z" />
    <glyph glyph-name="Aacute" unicode="&#xc1;" horiz-adv-x="594" 
d="M471 0l-50 157h-249l-49 -157h-118l238 700h108l238 -700h-118zM297 554l-94 -300h188zM433 924l-115 -161h-77l85 161h107z" />
    <glyph glyph-name="Acircumflex" unicode="&#xc2;" horiz-adv-x="594" 
d="M471 0l-50 157h-249l-49 -157h-118l238 700h108l238 -700h-118zM297 554l-94 -300h188zM343 924l119 -161h-84l-81 82l-81 -82h-84l119 161h92z" />
    <glyph glyph-name="Atilde" unicode="&#xc3;" horiz-adv-x="594" 
d="M471 0l-50 157h-249l-49 -157h-118l238 700h108l238 -700h-118zM297 554l-94 -300h188zM391 898l72 -8q-14 -115 -103 -115q-41 0 -79 32q-25 22 -45 22q-26 0 -33 -45l-72 8q14 115 103 115q41 0 79 -32q25 -22 45 -22q26 0 33 45z" />
    <glyph glyph-name="Adieresis" unicode="&#xc4;" horiz-adv-x="594" 
d="M471 0l-50 157h-249l-49 -157h-118l238 700h108l238 -700h-118zM297 554l-94 -300h188zM259 895v-105h-108v105h108zM443 895v-105h-108v105h108z" />
    <glyph glyph-name="Aring" unicode="&#xc5;" horiz-adv-x="594" 
d="M471 0l-50 157h-249l-49 -157h-118l238 700h108l238 -700h-118zM297 554l-94 -300h188zM403 843q0 -47 -30.5 -75.5t-75.5 -28.5t-75.5 28.5t-30.5 75.5t30.5 75.5t75.5 28.5t75.5 -28.5t30.5 -75.5zM338 843q0 21 -11 33t-30 12t-30 -12t-11 -33t11 -33t30 -12t30 12
t11 33z" />
    <glyph glyph-name="AE" unicode="&#xc6;" horiz-adv-x="867" 
d="M822 700v-97h-322v-195h281v-97h-281v-214h322v-97h-430v157h-216l-76 -157h-120l348 700h494zM223 254h169v349z" />
    <glyph glyph-name="Ccedilla" unicode="&#xc7;" horiz-adv-x="591" 
d="M183 -196l44 58q26 -21 55 -21q38 0 38 29q0 34 -78 37l-6 8l31 75q-99 12 -158 86.5t-59 187.5v172q0 122 69.5 199t182.5 77q100 0 167.5 -60.5t81.5 -160.5l-107 -18q-13 70 -49.5 106t-92.5 36q-67 0 -105.5 -51.5t-38.5 -145.5v-136q0 -94 38.5 -145.5t105.5 -51.5
q56 0 92.5 36t49.5 106l107 -18q-13 -88 -67.5 -146t-136.5 -71l-16 -39q75 -24 75 -92q0 -44 -31 -71.5t-87 -27.5q-64 0 -105 42z" />
    <glyph glyph-name="Egrave" unicode="&#xc8;" horiz-adv-x="545" 
d="M70 0v700h430v-97h-322v-195h281v-97h-281v-214h322v-97h-430zM269 763l-115 161h107l85 -161h-77z" />
    <glyph glyph-name="Eacute" unicode="&#xc9;" horiz-adv-x="545" 
d="M70 0v700h430v-97h-322v-195h281v-97h-281v-214h322v-97h-430zM408 924l-115 -161h-77l85 161h107z" />
    <glyph glyph-name="Ecircumflex" unicode="&#xca;" horiz-adv-x="545" 
d="M70 0v700h430v-97h-322v-195h281v-97h-281v-214h322v-97h-430zM327 924l119 -161h-84l-81 82l-81 -82h-84l119 161h92z" />
    <glyph glyph-name="Edieresis" unicode="&#xcb;" horiz-adv-x="545" 
d="M70 0v700h430v-97h-322v-195h281v-97h-281v-214h322v-97h-430zM243 895v-105h-108v105h108zM427 895v-105h-108v105h108z" />
    <glyph glyph-name="Igrave" unicode="&#xcc;" horiz-adv-x="248" 
d="M178 700v-700h-108v700h108zM103 763l-115 161h107l85 -161h-77z" />
    <glyph glyph-name="Iacute" unicode="&#xcd;" horiz-adv-x="248" 
d="M178 700v-700h-108v700h108zM260 924l-115 -161h-77l85 161h107z" />
    <glyph glyph-name="Icircumflex" unicode="&#xce;" horiz-adv-x="248" 
d="M178 700v-700h-108v700h108zM170 924l119 -161h-84l-81 82l-81 -82h-84l119 161h92z" />
    <glyph glyph-name="Idieresis" unicode="&#xcf;" horiz-adv-x="248" 
d="M178 700v-700h-108v700h108zM86 895v-105h-108v105h108zM270 895v-105h-108v105h108z" />
    <glyph glyph-name="Eth" unicode="&#xd0;" horiz-adv-x="597" 
d="M10 308v84h60v308h220q114 0 183 -71.5t69 -192.5v-172q0 -121 -69 -192.5t-183 -71.5h-220v308h-60zM178 308v-211h106q69 0 109.5 46.5t40.5 138.5v136q0 92 -40.5 138.5t-109.5 46.5h-106v-211h117v-84h-117z" />
    <glyph glyph-name="Ntilde" unicode="&#xd1;" horiz-adv-x="650" 
d="M480 0l-302 499v-499h-108v700h100l302 -499v499h108v-700h-100zM419 898l72 -8q-14 -115 -103 -115q-41 0 -79 32q-25 22 -45 22q-26 0 -33 -45l-72 8q14 115 103 115q41 0 79 -32q25 -22 45 -22q26 0 33 45z" />
    <glyph glyph-name="Ograve" unicode="&#xd2;" horiz-adv-x="604" 
d="M50 264v172q0 122 69.5 199t182.5 77t182.5 -77t69.5 -199v-172q0 -122 -69.5 -199t-182.5 -77t-182.5 77t-69.5 199zM158 418v-136q0 -94 38.5 -145.5t105.5 -51.5t105.5 51.5t38.5 145.5v136q0 94 -38.5 145.5t-105.5 51.5t-105.5 -51.5t-38.5 -145.5zM291 763
l-115 161h107l85 -161h-77z" />
    <glyph glyph-name="Oacute" unicode="&#xd3;" horiz-adv-x="604" 
d="M50 264v172q0 122 69.5 199t182.5 77t182.5 -77t69.5 -199v-172q0 -122 -69.5 -199t-182.5 -77t-182.5 77t-69.5 199zM158 418v-136q0 -94 38.5 -145.5t105.5 -51.5t105.5 51.5t38.5 145.5v136q0 94 -38.5 145.5t-105.5 51.5t-105.5 -51.5t-38.5 -145.5zM428 924
l-115 -161h-77l85 161h107z" />
    <glyph glyph-name="Ocircumflex" unicode="&#xd4;" horiz-adv-x="604" 
d="M50 264v172q0 122 69.5 199t182.5 77t182.5 -77t69.5 -199v-172q0 -122 -69.5 -199t-182.5 -77t-182.5 77t-69.5 199zM158 418v-136q0 -94 38.5 -145.5t105.5 -51.5t105.5 51.5t38.5 145.5v136q0 94 -38.5 145.5t-105.5 51.5t-105.5 -51.5t-38.5 -145.5zM348 924
l119 -161h-84l-81 82l-81 -82h-84l119 161h92z" />
    <glyph glyph-name="Otilde" unicode="&#xd5;" horiz-adv-x="604" 
d="M50 264v172q0 122 69.5 199t182.5 77t182.5 -77t69.5 -199v-172q0 -122 -69.5 -199t-182.5 -77t-182.5 77t-69.5 199zM158 418v-136q0 -94 38.5 -145.5t105.5 -51.5t105.5 51.5t38.5 145.5v136q0 94 -38.5 145.5t-105.5 51.5t-105.5 -51.5t-38.5 -145.5zM396 898l72 -8
q-14 -115 -103 -115q-41 0 -79 32q-25 22 -45 22q-26 0 -33 -45l-72 8q14 115 103 115q41 0 79 -32q25 -22 45 -22q26 0 33 45z" />
    <glyph glyph-name="Odieresis" unicode="&#xd6;" horiz-adv-x="604" 
d="M50 436v-172q0 -122 69.5 -199t182.5 -77t182.5 77t69.5 199v172q0 122 -69.5 199t-182.5 77t-182.5 -77t-69.5 -199zM158 282v136q0 94 38.5 145.5t105.5 51.5t105.5 -51.5t38.5 -145.5v-136q0 -94 -38.5 -145.5t-105.5 -51.5t-105.5 51.5t-38.5 145.5zM264 895v-105
h-108v105h108zM448 895v-105h-108v105h108z" />
    <glyph glyph-name="multiply" unicode="&#xd7;" horiz-adv-x="532" 
d="M408 121l-142 141l-141 -141l-64 63l142 142l-143 143l64 64l143 -143l142 142l63 -64l-142 -142l142 -141z" />
    <glyph glyph-name="Oslash" unicode="&#xd8;" horiz-adv-x="604" 
d="M463 732h87l-57 -107q61 -75 61 -189v-172q0 -122 -69.5 -199t-182.5 -77q-76 0 -132 35l-29 -55h-87l57 106q-61 75 -61 190v172q0 122 69.5 199t182.5 77q72 0 131 -35zM158 418v-136q0 -51 13 -95l214 400q-34 28 -83 28q-67 0 -105.5 -51.5t-38.5 -145.5zM302 85
q67 0 105.5 51.5t38.5 145.5v136q0 53 -14 95l-214 -400q34 -28 84 -28z" />
    <glyph glyph-name="Ugrave" unicode="&#xd9;" horiz-adv-x="616" 
d="M170 700v-424q0 -191 138 -191t138 191v424h108v-442q0 -123 -65 -196.5t-181 -73.5t-181 73.5t-65 196.5v442h108zM292 763l-115 161h107l85 -161h-77z" />
    <glyph glyph-name="Uacute" unicode="&#xda;" horiz-adv-x="616" 
d="M170 700v-424q0 -191 138 -191t138 191v424h108v-442q0 -123 -65 -196.5t-181 -73.5t-181 73.5t-65 196.5v442h108zM439 924l-115 -161h-77l85 161h107z" />
    <glyph glyph-name="Ucircumflex" unicode="&#xdb;" horiz-adv-x="616" 
d="M170 700v-424q0 -191 138 -191t138 191v424h108v-442q0 -123 -65 -196.5t-181 -73.5t-181 73.5t-65 196.5v442h108zM354 924l119 -161h-84l-81 82l-81 -82h-84l119 161h92z" />
    <glyph glyph-name="Udieresis" unicode="&#xdc;" horiz-adv-x="616" 
d="M170 276v424h-108v-442q0 -123 65 -196.5t181 -73.5t181 73.5t65 196.5v442h-108v-424q0 -191 -138 -191t-138 191zM270 895v-105h-108v105h108zM454 895v-105h-108v105h108z" />
    <glyph glyph-name="Yacute" unicode="&#xdd;" horiz-adv-x="574" 
d="M287 420l154 280h118l-218 -384v-316h-108v316l-218 384h118zM413 924l-115 -161h-77l85 161h107z" />
    <glyph glyph-name="Thorn" unicode="&#xde;" horiz-adv-x="583" 
d="M320 136h-142v-136h-108v700h108v-136h142q89 0 156 -56t67 -158q0 -103 -67 -158.5t-156 -55.5zM178 233h127q58 0 94 30.5t36 86.5q0 57 -36 87t-94 30h-127v-234z" />
    <glyph glyph-name="germandbls" unicode="&#xdf;" horiz-adv-x="577" 
d="M274 310l-15 78q59 18 89 47t31 72v6q0 44 -27 73t-73 29q-48 0 -76.5 -34t-28.5 -106v-475h-108v497q0 103 60 159t155 56q93 0 149.5 -56.5t56.5 -136.5v-12q0 -42 -24 -78t-66 -53q70 -19 112 -67t42 -125v-14q0 -86 -55.5 -134t-147.5 -48q-76 0 -128 31l27 89
q41 -23 96 -23q46 0 73 22t27 67v10q0 61 -46.5 93.5t-122.5 32.5z" />
    <glyph glyph-name="agrave" unicode="&#xe0;" horiz-adv-x="509" 
d="M40 130v15q0 64 52 106.5t162 42.5h97v13q0 55 -25.5 84t-70.5 29q-67 0 -99 -65l-101 28q29 60 82 94.5t122 34.5q90 0 142 -52.5t52 -137.5v-322h-102v52q-48 -64 -141 -64q-78 0 -124 40.5t-46 101.5zM228 80q40 0 73.5 17t49.5 46v69h-128q-34 0 -57.5 -18.5
t-23.5 -48.5v-5q0 -26 21.5 -43t64.5 -17zM256 564l-115 161h107l85 -161h-77z" />
    <glyph glyph-name="aacute" unicode="&#xe1;" horiz-adv-x="509" 
d="M40 130v15q0 64 52 106.5t162 42.5h97v13q0 55 -25.5 84t-70.5 29q-67 0 -99 -65l-101 28q29 60 82 94.5t122 34.5q90 0 142 -52.5t52 -137.5v-322h-102v52q-48 -64 -141 -64q-78 0 -124 40.5t-46 101.5zM228 80q40 0 73.5 17t49.5 46v69h-128q-34 0 -57.5 -18.5
t-23.5 -48.5v-5q0 -26 21.5 -43t64.5 -17zM373 725l-115 -161h-77l85 161h107z" />
    <glyph glyph-name="acircumflex" unicode="&#xe2;" horiz-adv-x="509" 
d="M40 130v15q0 64 52 106.5t162 42.5h97v13q0 55 -25.5 84t-70.5 29q-67 0 -99 -65l-101 28q29 60 82 94.5t122 34.5q90 0 142 -52.5t52 -137.5v-322h-102v52q-48 -64 -141 -64q-78 0 -124 40.5t-46 101.5zM228 80q40 0 73.5 17t49.5 46v69h-128q-34 0 -57.5 -18.5
t-23.5 -48.5v-5q0 -26 21.5 -43t64.5 -17zM303 725l119 -161h-84l-81 82l-81 -82h-84l119 161h92z" />
    <glyph glyph-name="atilde" unicode="&#xe3;" horiz-adv-x="509" 
d="M40 130v15q0 64 52 106.5t162 42.5h97v13q0 55 -25.5 84t-70.5 29q-67 0 -99 -65l-101 28q29 60 82 94.5t122 34.5q90 0 142 -52.5t52 -137.5v-322h-102v52q-48 -64 -141 -64q-78 0 -124 40.5t-46 101.5zM228 80q40 0 73.5 17t49.5 46v69h-128q-34 0 -57.5 -18.5
t-23.5 -48.5v-5q0 -26 21.5 -43t64.5 -17zM351 699l72 -8q-14 -115 -103 -115q-41 0 -79 32q-25 22 -45 22q-26 0 -33 -45l-72 8q14 115 103 115q41 0 79 -32q25 -22 45 -22q26 0 33 45z" />
    <glyph glyph-name="adieresis" unicode="&#xe4;" horiz-adv-x="509" 
d="M40 130v15q0 64 52 106.5t162 42.5h97v13q0 55 -25.5 84t-70.5 29q-67 0 -99 -65l-101 28q29 60 82 94.5t122 34.5q90 0 142 -52.5t52 -137.5v-322h-102v52q-48 -64 -141 -64q-78 0 -124 40.5t-46 101.5zM228 80q40 0 73.5 17t49.5 46v69h-128q-34 0 -57.5 -18.5
t-23.5 -48.5v-5q0 -26 21.5 -43t64.5 -17zM219 696v-105h-108v105h108zM403 696v-105h-108v105h108z" />
    <glyph glyph-name="aring" unicode="&#xe5;" horiz-adv-x="509" 
d="M40 130v15q0 64 52 106.5t162 42.5h97v13q0 55 -25.5 84t-70.5 29q-67 0 -99 -65l-101 28q29 60 82 94.5t122 34.5q90 0 142 -52.5t52 -137.5v-322h-102v52q-48 -64 -141 -64q-78 0 -124 40.5t-46 101.5zM228 80q40 0 73.5 17t49.5 46v69h-128q-34 0 -57.5 -18.5
t-23.5 -48.5v-5q0 -26 21.5 -43t64.5 -17zM363 644q0 -47 -30.5 -75.5t-75.5 -28.5t-75.5 28.5t-30.5 75.5t30.5 75.5t75.5 28.5t75.5 -28.5t30.5 -75.5zM298 644q0 21 -11 33t-30 12t-30 -12t-11 -33t11 -33t30 -12t30 12t11 33z" />
    <glyph glyph-name="ae" unicode="&#xe6;" horiz-adv-x="822" 
d="M252 420q-63 0 -99 -64l-98 27q28 59 79 94t121 35q105 0 155 -73q56 73 161 73q88 0 147 -60.5t59 -146.5v-93h-324v-4q1 -62 32.5 -95t81.5 -33q75 0 96 65l104 -17q-21 -65 -73 -102.5t-127 -37.5q-112 0 -174 81q-69 -81 -183 -81q-80 0 -125 40t-45 102v15
q0 64 52 106.5t162 42.5h97v18q0 52 -26 80t-73 28zM228 80q83 0 123 63v69h-128q-34 0 -57.5 -18.5t-23.5 -48.5v-5q0 -26 21.5 -43t64.5 -17zM564 420q-46 0 -77.5 -32.5t-33.5 -93.5h222q-3 61 -34.5 93.5t-76.5 32.5z" />
    <glyph glyph-name="ccedilla" unicode="&#xe7;" horiz-adv-x="495" 
d="M141 -196l44 58q26 -21 55 -21q38 0 38 29q0 34 -78 37l-6 8l31 76q-79 11 -129.5 69.5t-50.5 134.5v110q0 84 61 145.5t152 61.5q76 0 130 -45t72 -114l-103 -17q-9 41 -36 62.5t-63 21.5q-47 0 -79 -35t-32 -100v-70q0 -65 32 -100t79 -35q36 0 63 21.5t36 62.5
l103 -17q-15 -57 -55.5 -99t-98.5 -55l-17 -40q75 -24 75 -92q0 -44 -31 -71.5t-87 -27.5q-64 0 -105 42z" />
    <glyph glyph-name="egrave" unicode="&#xe8;" horiz-adv-x="516" 
d="M471 212h-324q1 -65 32 -98.5t82 -33.5q75 0 96 65l104 -17q-21 -65 -73 -102.5t-127 -37.5q-96 0 -156 61t-60 146v110q0 84 61 145.5t152 61.5t152 -61.5t61 -145.5v-93zM258 420q-46 0 -77.5 -32.5t-33.5 -93.5h222q-3 61 -34.5 93.5t-76.5 32.5zM247 564l-115 161
h107l85 -161h-77z" />
    <glyph glyph-name="eacute" unicode="&#xe9;" horiz-adv-x="516" 
d="M471 212h-324q1 -65 32 -98.5t82 -33.5q75 0 96 65l104 -17q-21 -65 -73 -102.5t-127 -37.5q-96 0 -156 61t-60 146v110q0 84 61 145.5t152 61.5t152 -61.5t61 -145.5v-93zM258 420q-46 0 -77.5 -32.5t-33.5 -93.5h222q-3 61 -34.5 93.5t-76.5 32.5zM384 725l-115 -161
h-77l85 161h107z" />
    <glyph glyph-name="ecircumflex" unicode="&#xea;" horiz-adv-x="516" 
d="M147 212h324v93q0 84 -61 145.5t-152 61.5t-152 -61.5t-61 -145.5v-110q0 -85 60 -146t156 -61q75 0 127 37.5t73 102.5l-104 17q-21 -65 -96 -65q-51 0 -82 33.5t-32 98.5zM258 420q45 0 76.5 -32.5t34.5 -93.5h-222q2 61 33.5 93.5t77.5 32.5zM301 725l119 -161h-84
l-81 82l-81 -82h-84l119 161h92z" />
    <glyph glyph-name="edieresis" unicode="&#xeb;" horiz-adv-x="516" 
d="M471 212h-324q1 -65 32 -98.5t82 -33.5q75 0 96 65l104 -17q-21 -65 -73 -102.5t-127 -37.5q-96 0 -156 61t-60 146v110q0 84 61 145.5t152 61.5t152 -61.5t61 -145.5v-93zM258 420q-46 0 -77.5 -32.5t-33.5 -93.5h222q-3 61 -34.5 93.5t-76.5 32.5zM217 696v-105h-108
v105h108zM401 696v-105h-108v105h108z" />
    <glyph glyph-name="igrave" unicode="&#xec;" horiz-adv-x="242" 
d="M70 0v500h102v-500h-102zM100 564l-115 161h107l85 -161h-77z" />
    <glyph glyph-name="iacute" unicode="&#xed;" horiz-adv-x="242" 
d="M70 0v500h102v-500h-102zM257 725l-115 -161h-77l85 161h107z" />
    <glyph glyph-name="icircumflex" unicode="&#xee;" horiz-adv-x="242" 
d="M70 0v500h102v-500h-102zM167 725l119 -161h-84l-81 82l-81 -82h-84l119 161h92z" />
    <glyph glyph-name="idieresis" unicode="&#xef;" horiz-adv-x="242" 
d="M70 0v500h102v-500h-102zM83 696v-105h-108v105h108zM267 696v-105h-108v105h108z" />
    <glyph glyph-name="eth" unicode="&#xf0;" horiz-adv-x="516" 
d="M439 619l-86 -19l65 -120q31 -57 42 -96.5t11 -103.5v-90q0 -82 -61 -142t-152 -60t-152 60t-61 142v120q0 83 60.5 142.5t146.5 59.5q24 0 39 -7l-40 72l-114 -25l-15 63l97 21l-40 76h113l29 -53l103 23zM147 285v-70q0 -65 32 -100t79 -35t79 35t32 100v70
q0 65 -32 100t-79 35t-79 -35t-32 -100z" />
    <glyph glyph-name="ntilde" unicode="&#xf1;" horiz-adv-x="532" 
d="M60 0v500h102v-62q19 33 57.5 53.5t84.5 20.5q83 0 127.5 -55t44.5 -152v-305h-102v285q0 69 -23 102t-81 33q-33 0 -63.5 -20t-44.5 -53v-347h-102zM360 699l72 -8q-14 -115 -103 -115q-41 0 -79 32q-25 22 -45 22q-26 0 -33 -45l-72 8q14 115 103 115q41 0 79 -32
q25 -22 45 -22q26 0 33 45z" />
    <glyph glyph-name="ograve" unicode="&#xf2;" horiz-adv-x="516" 
d="M45 195v110q0 84 61 145.5t152 61.5t152 -61.5t61 -145.5v-110q0 -84 -61 -145.5t-152 -61.5t-152 61.5t-61 145.5zM147 285v-70q0 -65 32 -100t79 -35t79 35t32 100v70q0 65 -32 100t-79 35t-79 -35t-32 -100zM247 564l-115 161h107l85 -161h-77z" />
    <glyph glyph-name="oacute" unicode="&#xf3;" horiz-adv-x="516" 
d="M45 195v110q0 84 61 145.5t152 61.5t152 -61.5t61 -145.5v-110q0 -84 -61 -145.5t-152 -61.5t-152 61.5t-61 145.5zM147 285v-70q0 -65 32 -100t79 -35t79 35t32 100v70q0 65 -32 100t-79 35t-79 -35t-32 -100zM384 725l-115 -161h-77l85 161h107z" />
    <glyph glyph-name="ocircumflex" unicode="&#xf4;" horiz-adv-x="516" 
d="M45 195v110q0 84 61 145.5t152 61.5t152 -61.5t61 -145.5v-110q0 -84 -61 -145.5t-152 -61.5t-152 61.5t-61 145.5zM147 285v-70q0 -65 32 -100t79 -35t79 35t32 100v70q0 65 -32 100t-79 35t-79 -35t-32 -100zM304 725l119 -161h-84l-81 82l-81 -82h-84l119 161h92z" />
    <glyph glyph-name="otilde" unicode="&#xf5;" horiz-adv-x="516" 
d="M45 195v110q0 84 61 145.5t152 61.5t152 -61.5t61 -145.5v-110q0 -84 -61 -145.5t-152 -61.5t-152 61.5t-61 145.5zM147 285v-70q0 -65 32 -100t79 -35t79 35t32 100v70q0 65 -32 100t-79 35t-79 -35t-32 -100zM352 699l72 -8q-14 -115 -103 -115q-41 0 -79 32
q-25 22 -45 22q-26 0 -33 -45l-72 8q14 115 103 115q41 0 79 -32q25 -22 45 -22q26 0 33 45z" />
    <glyph glyph-name="odieresis" unicode="&#xf6;" horiz-adv-x="516" 
d="M45 305v-110q0 -84 61 -145.5t152 -61.5t152 61.5t61 145.5v110q0 84 -61 145.5t-152 61.5t-152 -61.5t-61 -145.5zM147 215v70q0 65 32 100t79 35t79 -35t32 -100v-70q0 -65 -32 -100t-79 -35t-79 35t-32 100zM220 696v-105h-108v105h108zM404 696v-105h-108v105h108z
" />
    <glyph glyph-name="divide" unicode="&#xf7;" horiz-adv-x="532" 
d="M50 285v82h432v-82h-432zM325 552v-115h-118v115h118zM207 100v115h118v-115h-118z" />
    <glyph glyph-name="oslash" unicode="&#xf8;" horiz-adv-x="516" 
d="M372 538h82l-46 -85q63 -61 63 -148v-110q0 -84 -61 -145.5t-152 -61.5q-47 0 -90 19l-24 -45h-82l46 85q-63 60 -63 148v110q0 84 61 145.5t152 61.5q47 0 90 -19zM258 80q47 0 79 35t32 100v70q0 40 -14 70l-143 -265q20 -10 46 -10zM147 285v-70q0 -40 13 -71l143 266
q-20 10 -45 10q-47 0 -79 -35t-32 -100z" />
    <glyph glyph-name="ugrave" unicode="&#xf9;" horiz-adv-x="532" 
d="M56 195v305h102v-285q0 -69 23 -102t81 -33q33 0 63.5 20t44.5 53v347h102v-500h-102v62q-19 -33 -57.5 -53.5t-84.5 -20.5q-83 0 -127.5 55t-44.5 152zM255 564l-115 161h107l85 -161h-77z" />
    <glyph glyph-name="uacute" unicode="&#xfa;" horiz-adv-x="532" 
d="M56 195v305h102v-285q0 -69 23 -102t81 -33q33 0 63.5 20t44.5 53v347h102v-500h-102v62q-19 -33 -57.5 -53.5t-84.5 -20.5q-83 0 -127.5 55t-44.5 152zM392 725l-115 -161h-77l85 161h107z" />
    <glyph glyph-name="ucircumflex" unicode="&#xfb;" horiz-adv-x="532" 
d="M56 195v305h102v-285q0 -69 23 -102t81 -33q33 0 63.5 20t44.5 53v347h102v-500h-102v62q-19 -33 -57.5 -53.5t-84.5 -20.5q-83 0 -127.5 55t-44.5 152zM312 725l119 -161h-84l-81 82l-81 -82h-84l119 161h92z" />
    <glyph glyph-name="udieresis" unicode="&#xfc;" horiz-adv-x="532" 
d="M56 195v305h102v-285q0 -69 23 -102t81 -33q33 0 63.5 20t44.5 53v347h102v-500h-102v62q-19 -33 -57.5 -53.5t-84.5 -20.5q-83 0 -127.5 55t-44.5 152zM228 696v-105h-108v105h108zM412 696v-105h-108v105h108z" />
    <glyph glyph-name="yacute" unicode="&#xfd;" horiz-adv-x="497" 
d="M176 -65l30 86l-196 479h110l134 -345l123 345h110l-219 -598q-25 -68 -59.5 -90.5t-97.5 -22.5h-39v92h34q26 0 42.5 11.5t27.5 42.5zM374 725l-115 -161h-77l85 161h107z" />
    <glyph glyph-name="thorn" unicode="&#xfe;" horiz-adv-x="520" 
d="M475 305v-110q0 -89 -47 -148t-134 -59q-42 0 -78 18t-54 46v-270h-102v930h102v-264q18 28 54 46t78 18q87 0 134 -59t47 -148zM260 420q-65 0 -98 -63v-214q33 -63 98 -63q113 0 113 135v70q0 135 -113 135z" />
    <glyph glyph-name="ydieresis" unicode="&#xff;" horiz-adv-x="497" 
d="M176 -65l30 86l-196 479h110l134 -345l123 345h110l-219 -598q-25 -68 -59.5 -90.5t-97.5 -22.5h-39v92h34q26 0 42.5 11.5t27.5 42.5zM213 696v-105h-108v105h108zM397 696v-105h-108v105h108z" />
    <glyph glyph-name="Amacron" unicode="&#x100;" horiz-adv-x="594" 
d="M471 0l-50 157h-249l-49 -157h-118l238 700h108l238 -700h-118zM297 554l-94 -300h188zM151 804v78h292v-78h-292z" />
    <glyph glyph-name="amacron" unicode="&#x101;" horiz-adv-x="509" 
d="M40 130v15q0 64 52 106.5t162 42.5h97v13q0 55 -25.5 84t-70.5 29q-67 0 -99 -65l-101 28q29 60 82 94.5t122 34.5q90 0 142 -52.5t52 -137.5v-322h-102v52q-48 -64 -141 -64q-78 0 -124 40.5t-46 101.5zM228 80q40 0 73.5 17t49.5 46v69h-128q-34 0 -57.5 -18.5
t-23.5 -48.5v-5q0 -26 21.5 -43t64.5 -17zM111 605v78h292v-78h-292z" />
    <glyph glyph-name="Abreve" unicode="&#x102;" horiz-adv-x="594" 
d="M471 0l-50 157h-249l-49 -157h-118l238 700h108l238 -700h-118zM297 554l-94 -300h188zM297 765q-124 0 -154 132l81 16q21 -70 73 -70t73 70l81 -16q-30 -132 -154 -132z" />
    <glyph glyph-name="abreve" unicode="&#x103;" horiz-adv-x="509" 
d="M40 130v15q0 64 52 106.5t162 42.5h97v13q0 55 -25.5 84t-70.5 29q-67 0 -99 -65l-101 28q29 60 82 94.5t122 34.5q90 0 142 -52.5t52 -137.5v-322h-102v52q-48 -64 -141 -64q-78 0 -124 40.5t-46 101.5zM228 80q40 0 73.5 17t49.5 46v69h-128q-34 0 -57.5 -18.5
t-23.5 -48.5v-5q0 -26 21.5 -43t64.5 -17zM257 568q-124 0 -154 132l81 16q21 -70 73 -70t73 70l81 -16q-30 -132 -154 -132z" />
    <glyph glyph-name="Aogonek" unicode="&#x104;" horiz-adv-x="594" 
d="M471 0l-50 157h-249l-49 -157h-118l238 700h108l238 -700h-40q-66 -49 -66 -95v-5q0 -17 11.5 -29t29.5 -12q28 0 49 21l49 -52q-42 -47 -111 -47q-52 0 -82.5 26.5t-30.5 70.5v8q0 29 19.5 61.5t53.5 52.5zM297 554l-94 -300h188z" />
    <glyph glyph-name="aogonek" unicode="&#x105;" horiz-adv-x="509" 
d="M40 130v15q0 64 52 106.5t162 42.5h97v13q0 55 -25.5 84t-70.5 29q-67 0 -99 -65l-101 28q29 60 82 94.5t122 34.5q90 0 142 -52.5t52 -137.5v-322h-24q-66 -49 -66 -95v-5q0 -17 11.5 -29t29.5 -12q28 0 49 21l49 -52q-42 -47 -111 -47q-52 0 -82.5 26.5t-30.5 70.5v8
q0 29 19.5 61.5t53.5 52.5v52q-48 -64 -141 -64q-78 0 -124 40.5t-46 101.5zM228 80q40 0 73.5 17t49.5 46v69h-128q-34 0 -57.5 -18.5t-23.5 -48.5v-5q0 -26 21.5 -43t64.5 -17z" />
    <glyph glyph-name="Cacute" unicode="&#x106;" horiz-adv-x="591" 
d="M50 264v172q0 122 69.5 199t182.5 77q100 0 167.5 -60.5t81.5 -160.5l-107 -18q-13 70 -49.5 106t-92.5 36q-67 0 -105.5 -51.5t-38.5 -145.5v-136q0 -94 38.5 -145.5t105.5 -51.5q56 0 92.5 36t49.5 106l107 -18q-14 -100 -81.5 -160.5t-167.5 -60.5q-113 0 -182.5 77
t-69.5 199zM415 924l-115 -161h-77l85 161h107z" />
    <glyph glyph-name="cacute" unicode="&#x107;" horiz-adv-x="495" 
d="M45 195v110q0 84 61 145.5t152 61.5q76 0 130 -45t72 -114l-103 -17q-9 41 -36 62.5t-63 21.5q-47 0 -79 -35t-32 -100v-70q0 -65 32 -100t79 -35q36 0 63 21.5t36 62.5l103 -17q-18 -69 -72 -114t-130 -45q-91 0 -152 61.5t-61 145.5zM368 725l-115 -161h-77l85 161h107
z" />
    <glyph glyph-name="Ccircumflex" unicode="&#x108;" horiz-adv-x="591" 
d="M50 264v172q0 122 69.5 199t182.5 77q100 0 167.5 -60.5t81.5 -160.5l-107 -18q-13 70 -49.5 106t-92.5 36q-67 0 -105.5 -51.5t-38.5 -145.5v-136q0 -94 38.5 -145.5t105.5 -51.5q56 0 92.5 36t49.5 106l107 -18q-14 -100 -81.5 -160.5t-167.5 -60.5q-113 0 -182.5 77
t-69.5 199zM340 924l119 -161h-84l-81 82l-81 -82h-84l119 161h92z" />
    <glyph glyph-name="ccircumflex" unicode="&#x109;" horiz-adv-x="495" 
d="M45 195v110q0 84 61 145.5t152 61.5q76 0 130 -45t72 -114l-103 -17q-9 41 -36 62.5t-63 21.5q-47 0 -79 -35t-32 -100v-70q0 -65 32 -100t79 -35q36 0 63 21.5t36 62.5l103 -17q-18 -69 -72 -114t-130 -45q-91 0 -152 61.5t-61 145.5zM290 725l119 -161h-84l-81 82
l-81 -82h-84l119 161h92z" />
    <glyph glyph-name="Cdotaccent" unicode="&#x10a;" horiz-adv-x="591" 
d="M50 264v172q0 122 69.5 199t182.5 77q100 0 167.5 -60.5t81.5 -160.5l-107 -18q-13 70 -49.5 106t-92.5 36q-67 0 -105.5 -51.5t-38.5 -145.5v-136q0 -94 38.5 -145.5t105.5 -51.5q56 0 92.5 36t49.5 106l107 -18q-14 -100 -81.5 -160.5t-167.5 -60.5q-113 0 -182.5 77
t-69.5 199zM353 900v-115h-118v115h118z" />
    <glyph glyph-name="cdotaccent" unicode="&#x10b;" horiz-adv-x="495" 
d="M45 195v110q0 84 61 145.5t152 61.5q76 0 130 -45t72 -114l-103 -17q-9 41 -36 62.5t-63 21.5q-47 0 -79 -35t-32 -100v-70q0 -65 32 -100t79 -35q36 0 63 21.5t36 62.5l103 -17q-18 -69 -72 -114t-130 -45q-91 0 -152 61.5t-61 145.5zM306 701v-115h-118v115h118z" />
    <glyph glyph-name="Ccaron" unicode="&#x10c;" horiz-adv-x="591" 
d="M50 264v172q0 122 69.5 199t182.5 77q100 0 167.5 -60.5t81.5 -160.5l-107 -18q-13 70 -49.5 106t-92.5 36q-67 0 -105.5 -51.5t-38.5 -145.5v-136q0 -94 38.5 -145.5t105.5 -51.5q56 0 92.5 36t49.5 106l107 -18q-14 -100 -81.5 -160.5t-167.5 -60.5q-113 0 -182.5 77
t-69.5 199zM459 924l-119 -161h-92l-119 161h84l81 -82l81 82h84z" />
    <glyph glyph-name="ccaron" unicode="&#x10d;" horiz-adv-x="495" 
d="M45 195v110q0 84 61 145.5t152 61.5q76 0 130 -45t72 -114l-103 -17q-9 41 -36 62.5t-63 21.5q-47 0 -79 -35t-32 -100v-70q0 -65 32 -100t79 -35q36 0 63 21.5t36 62.5l103 -17q-18 -69 -72 -114t-130 -45q-91 0 -152 61.5t-61 145.5zM412 725l-119 -161h-92l-119 161
h84l81 -82l81 82h84z" />
    <glyph glyph-name="Dcaron" unicode="&#x10e;" horiz-adv-x="597" 
d="M70 0v700h220q114 0 183 -71.5t69 -192.5v-172q0 -121 -69 -192.5t-183 -71.5h-220zM178 603v-506h106q69 0 109.5 46.5t40.5 138.5v136q0 92 -40.5 138.5t-109.5 46.5h-106zM433 924l-119 -161h-92l-119 161h84l81 -82l81 82h84z" />
    <glyph glyph-name="dcaron" unicode="&#x10f;" horiz-adv-x="632" 
d="M45 195v110q0 89 47 148t134 59q42 0 78 -18t54 -46v264h102v-712h-102v52q-18 -28 -54 -46t-78 -18q-87 0 -134 59t-47 148zM260 420q-113 0 -113 -135v-70q0 -135 113 -135q65 0 98 63v214q-33 63 -98 63zM627 712v-115q0 -49 -29.5 -79t-88.5 -36v44q37 6 52.5 21.5
t15.5 49.5h-68v115h118z" />
    <glyph glyph-name="Dcroat" unicode="&#x110;" horiz-adv-x="597" 
d="M10 308v84h60v308h220q114 0 183 -71.5t69 -192.5v-172q0 -121 -69 -192.5t-183 -71.5h-220v308h-60zM178 308v-211h106q69 0 109.5 46.5t40.5 138.5v136q0 92 -40.5 138.5t-109.5 46.5h-106v-211h117v-84h-117z" />
    <glyph glyph-name="dcroat" unicode="&#x111;" horiz-adv-x="520" 
d="M45 195v110q0 89 47 148t134 59q42 0 78 -18t54 -46v129h-128v79h128v56h102v-56h60v-79h-60v-577h-102v52q-18 -28 -54 -46t-78 -18q-87 0 -134 59t-47 148zM260 420q-113 0 -113 -135v-70q0 -135 113 -135q65 0 98 63v214q-33 63 -98 63z" />
    <glyph glyph-name="Emacron" unicode="&#x112;" horiz-adv-x="545" 
d="M70 0v700h430v-97h-322v-195h281v-97h-281v-214h322v-97h-430zM135 804v78h292v-78h-292z" />
    <glyph glyph-name="emacron" unicode="&#x113;" horiz-adv-x="516" 
d="M147 212h324v93q0 84 -61 145.5t-152 61.5t-152 -61.5t-61 -145.5v-110q0 -85 60 -146t156 -61q75 0 127 37.5t73 102.5l-104 17q-21 -65 -96 -65q-51 0 -82 33.5t-32 98.5zM258 420q45 0 76.5 -32.5t34.5 -93.5h-222q2 61 33.5 93.5t77.5 32.5zM109 605v78h292v-78h-292
z" />
    <glyph glyph-name="Ebreve" unicode="&#x114;" horiz-adv-x="545" 
d="M70 0v700h430v-97h-322v-195h281v-97h-281v-214h322v-97h-430zM281 765q-124 0 -154 132l81 16q21 -70 73 -70t73 70l81 -16q-30 -132 -154 -132z" />
    <glyph glyph-name="ebreve" unicode="&#x115;" horiz-adv-x="516" 
d="M471 212h-324q1 -65 32 -98.5t82 -33.5q75 0 96 65l104 -17q-21 -65 -73 -102.5t-127 -37.5q-96 0 -156 61t-60 146v110q0 84 61 145.5t152 61.5t152 -61.5t61 -145.5v-93zM258 420q-46 0 -77.5 -32.5t-33.5 -93.5h222q-3 61 -34.5 93.5t-76.5 32.5zM255 568
q-124 0 -154 132l81 16q21 -70 73 -70t73 70l81 -16q-30 -132 -154 -132z" />
    <glyph glyph-name="Edotaccent" unicode="&#x116;" horiz-adv-x="545" 
d="M70 0v700h430v-97h-322v-195h281v-97h-281v-214h322v-97h-430zM340 900v-115h-118v115h118z" />
    <glyph glyph-name="edotaccent" unicode="&#x117;" horiz-adv-x="516" 
d="M147 212h324v93q0 84 -61 145.5t-152 61.5t-152 -61.5t-61 -145.5v-110q0 -85 60 -146t156 -61q75 0 127 37.5t73 102.5l-104 17q-21 -65 -96 -65q-51 0 -82 33.5t-32 98.5zM258 420q45 0 76.5 -32.5t34.5 -93.5h-222q2 61 33.5 93.5t77.5 32.5zM314 701v-115h-118v115
h118z" />
    <glyph glyph-name="Eogonek" unicode="&#x118;" horiz-adv-x="545" 
d="M70 0v700h430v-97h-322v-195h281v-97h-281v-214h322v-97h-56q-66 -49 -66 -95v-5q0 -17 11.5 -29t29.5 -12q28 0 49 21l49 -52q-42 -47 -111 -47q-52 0 -82.5 26.5t-30.5 70.5v8q0 29 19.5 61.5t51.5 52.5h-294z" />
    <glyph glyph-name="eogonek" unicode="&#x119;" horiz-adv-x="516" 
d="M471 212h-324q1 -65 32 -98.5t82 -33.5q75 0 96 65l104 -17q-36 -110 -146 -134q-57 -46 -57 -89v-5q0 -17 11.5 -29t29.5 -12q28 0 49 21l49 -52q-42 -47 -111 -47q-52 0 -82.5 26.5t-30.5 70.5v8q0 26 15.5 54.5t42.5 49.5q-84 9 -135 68t-51 137v110q0 84 61 145.5
t152 61.5t152 -61.5t61 -145.5v-93zM258 420q-46 0 -77.5 -32.5t-33.5 -93.5h222q-3 61 -34.5 93.5t-76.5 32.5z" />
    <glyph glyph-name="Ecaron" unicode="&#x11a;" horiz-adv-x="545" 
d="M70 0v700h430v-97h-322v-195h281v-97h-281v-214h322v-97h-430zM446 924l-119 -161h-92l-119 161h84l81 -82l81 82h84z" />
    <glyph glyph-name="ecaron" unicode="&#x11b;" horiz-adv-x="516" 
d="M471 212h-324q1 -65 32 -98.5t82 -33.5q75 0 96 65l104 -17q-21 -65 -73 -102.5t-127 -37.5q-96 0 -156 61t-60 146v110q0 84 61 145.5t152 61.5t152 -61.5t61 -145.5v-93zM258 420q-46 0 -77.5 -32.5t-33.5 -93.5h222q-3 61 -34.5 93.5t-76.5 32.5zM420 725l-119 -161
h-92l-119 161h84l81 -82l81 82h84z" />
    <glyph glyph-name="Gcircumflex" unicode="&#x11c;" horiz-adv-x="599" 
d="M302 278v96h252v-110q0 -122 -69.5 -199t-182.5 -77t-182.5 77t-69.5 199v172q0 122 69.5 199t182.5 77q100 0 167.5 -60.5t81.5 -160.5l-107 -18q-13 70 -49.5 106t-92.5 36q-67 0 -105.5 -51.5t-38.5 -145.5v-136q0 -94 38.5 -145.5t105.5 -51.5q66 0 105 48.5
t39 128.5v16h-144zM340 924l119 -161h-84l-81 82l-81 -82h-84l119 161h92z" />
    <glyph glyph-name="gcircumflex" unicode="&#x11d;" horiz-adv-x="520" 
d="M45 305v-110q0 -89 47 -148t134 -59q42 0 78 18t54 46v-52q0 -140 -99 -140q-69 0 -94 65l-101 -25q22 -62 73.5 -97t121.5 -35q95 0 148 60.5t53 166.5v505h-102v-52q-18 28 -54 46t-78 18q-87 0 -134 -59t-47 -148zM260 420q65 0 98 -63v-214q-33 -63 -98 -63
q-113 0 -113 135v70q0 135 113 135zM306 725l119 -161h-84l-81 82l-81 -82h-84l119 161h92z" />
    <glyph glyph-name="Gbreve" unicode="&#x11e;" horiz-adv-x="599" 
d="M302 278v96h252v-110q0 -122 -69.5 -199t-182.5 -77t-182.5 77t-69.5 199v172q0 122 69.5 199t182.5 77q100 0 167.5 -60.5t81.5 -160.5l-107 -18q-13 70 -49.5 106t-92.5 36q-67 0 -105.5 -51.5t-38.5 -145.5v-136q0 -94 38.5 -145.5t105.5 -51.5q66 0 105 48.5
t39 128.5v16h-144zM292 765q-124 0 -154 132l81 16q21 -70 73 -70t73 70l81 -16q-30 -132 -154 -132z" />
    <glyph glyph-name="gbreve" unicode="&#x11f;" horiz-adv-x="520" 
d="M45 195v110q0 89 47 148t134 59q42 0 78 -18t54 -46v52h102v-505q0 -106 -53 -166.5t-148 -60.5q-70 0 -121.5 35t-73.5 97l101 25q25 -65 94 -65q99 0 99 140v52q-18 -28 -54 -46t-78 -18q-87 0 -134 59t-47 148zM260 420q-113 0 -113 -135v-70q0 -135 113 -135
q65 0 98 63v214q-33 63 -98 63zM260 568q-124 0 -154 132l81 16q21 -70 73 -70t73 70l81 -16q-30 -132 -154 -132z" />
    <glyph glyph-name="Gdotaccent" unicode="&#x120;" horiz-adv-x="599" 
d="M302 278v96h252v-110q0 -122 -69.5 -199t-182.5 -77t-182.5 77t-69.5 199v172q0 122 69.5 199t182.5 77q100 0 167.5 -60.5t81.5 -160.5l-107 -18q-13 70 -49.5 106t-92.5 36q-67 0 -105.5 -51.5t-38.5 -145.5v-136q0 -94 38.5 -145.5t105.5 -51.5q66 0 105 48.5
t39 128.5v16h-144zM351 900v-115h-118v115h118z" />
    <glyph glyph-name="gdotaccent" unicode="&#x121;" horiz-adv-x="520" 
d="M45 195v110q0 89 47 148t134 59q42 0 78 -18t54 -46v52h102v-505q0 -106 -53 -166.5t-148 -60.5q-70 0 -121.5 35t-73.5 97l101 25q25 -65 94 -65q99 0 99 140v52q-18 -28 -54 -46t-78 -18q-87 0 -134 59t-47 148zM260 420q-113 0 -113 -135v-70q0 -135 113 -135
q65 0 98 63v214q-33 63 -98 63zM321 701v-115h-118v115h118z" />
    <glyph glyph-name="Gcommaaccent" unicode="&#x122;" horiz-adv-x="599" 
d="M302 278v96h252v-110q0 -122 -69.5 -199t-182.5 -77t-182.5 77t-69.5 199v172q0 122 69.5 199t182.5 77q100 0 167.5 -60.5t81.5 -160.5l-107 -18q-13 70 -49.5 106t-92.5 36q-67 0 -105.5 -51.5t-38.5 -145.5v-136q0 -94 38.5 -145.5t105.5 -51.5q66 0 105 48.5
t39 128.5v16h-144zM230 -210h82l63 161h-107z" />
    <glyph glyph-name="gcommaaccent" unicode="&#x123;" horiz-adv-x="520" 
d="M45 195v110q0 89 47 148t134 59q42 0 78 -18t54 -46v52h102v-505q0 -106 -53 -166.5t-148 -60.5q-70 0 -121.5 35t-73.5 97l101 25q25 -65 94 -65q99 0 99 140v52q-18 -28 -54 -46t-78 -18q-87 0 -134 59t-47 148zM260 420q-113 0 -113 -135v-70q0 -135 113 -135
q65 0 98 63v214q-33 63 -98 63zM267 712h82l-38 -161h-107z" />
    <glyph glyph-name="Hcircumflex" unicode="&#x124;" horiz-adv-x="620" 
d="M442 0v311h-264v-311h-108v700h108v-292h264v292h108v-700h-108zM356 924l119 -161h-84l-81 82l-81 -82h-84l119 161h92z" />
    <glyph glyph-name="hcircumflex" unicode="&#x125;" horiz-adv-x="532" 
d="M476 305v-305h-102v285q0 69 -23 102t-81 33q-33 0 -63.5 -20t-44.5 -53v-347h-102v712h102v-274q19 33 57.5 53.5t84.5 20.5q83 0 127.5 -55t44.5 -152zM158 924l119 -161h-84l-81 82l-81 -82h-84l119 161h92z" />
    <glyph glyph-name="Hbar" unicode="&#x126;" horiz-adv-x="620" 
d="M10 517v84h60v99h108v-99h264v99h108v-99h60v-84h-60v-517h-108v311h-264v-311h-108v517h-60zM178 408h264v109h-264v-109z" />
    <glyph glyph-name="hbar" unicode="&#x127;" horiz-adv-x="532" 
d="M476 305v-305h-102v285q0 69 -23 102t-81 33q-33 0 -63.5 -20t-44.5 -53v-347h-102v577h-60v79h60v56h102v-56h128v-79h-128v-139q19 33 57.5 53.5t84.5 20.5q83 0 127.5 -55t44.5 -152z" />
    <glyph glyph-name="Itilde" unicode="&#x128;" horiz-adv-x="248" 
d="M178 700v-700h-108v700h108zM218 898l72 -8q-14 -115 -103 -115q-41 0 -79 32q-25 22 -45 22q-26 0 -33 -45l-72 8q14 115 103 115q41 0 79 -32q25 -22 45 -22q26 0 33 45z" />
    <glyph glyph-name="itilde" unicode="&#x129;" horiz-adv-x="242" 
d="M70 0v500h102v-500h-102zM215 699l72 -8q-14 -115 -103 -115q-41 0 -79 32q-25 22 -45 22q-26 0 -33 -45l-72 8q14 115 103 115q41 0 79 -32q25 -22 45 -22q26 0 33 45z" />
    <glyph glyph-name="Imacron" unicode="&#x12a;" horiz-adv-x="248" 
d="M178 700v-700h-108v700h108zM-22 804v78h292v-78h-292z" />
    <glyph glyph-name="imacron" unicode="&#x12b;" horiz-adv-x="242" 
d="M70 0v500h102v-500h-102zM-25 605v78h292v-78h-292z" />
    <glyph glyph-name="Ibreve" unicode="&#x12c;" horiz-adv-x="248" 
d="M178 700v-700h-108v700h108zM124 765q-124 0 -154 132l81 16q21 -70 73 -70t73 70l81 -16q-30 -132 -154 -132z" />
    <glyph glyph-name="ibreve" unicode="&#x12d;" horiz-adv-x="242" 
d="M70 0v500h102v-500h-102zM121 568q-124 0 -154 132l81 16q21 -70 73 -70t73 70l81 -16q-30 -132 -154 -132z" />
    <glyph glyph-name="Iogonek" unicode="&#x12e;" horiz-adv-x="248" 
d="M100 0h-30v700h108v-700q-66 -49 -66 -95v-5q0 -17 11.5 -29t29.5 -12q28 0 49 21l49 -52q-42 -47 -111 -47q-52 0 -82.5 26.5t-30.5 70.5v8q0 29 19.5 61.5t53.5 52.5z" />
    <glyph glyph-name="iogonek" unicode="&#x12f;" horiz-adv-x="242" 
d="M70 0v500h102v-500q-66 -49 -66 -95v-5q0 -17 11.5 -29t29.5 -12q28 0 49 21l49 -52q-42 -47 -111 -47q-52 0 -82.5 26.5t-30.5 70.5v8q0 29 19.5 61.5t53.5 52.5h-24zM70 602v110h102v-110h-102z" />
    <glyph glyph-name="Idotaccent" unicode="&#x130;" horiz-adv-x="248" 
d="M178 700v-700h-108v700h108zM183 900v-115h-118v115h118z" />
    <glyph glyph-name="dotlessi" unicode="&#x131;" horiz-adv-x="242" 
d="M70 0v500h102v-500h-102z" />
    <glyph glyph-name="IJ" unicode="&#x132;" horiz-adv-x="766" 
d="M178 700v-700h-108v700h108zM598 232v468h108v-486q0 -111 -59.5 -168.5t-161.5 -57.5q-82 0 -139.5 47.5t-75.5 136.5l108 17q13 -56 42.5 -80t65.5 -24q112 0 112 147z" />
    <glyph glyph-name="ij" unicode="&#x133;" horiz-adv-x="494" 
d="M70 0v500h102v-500h-102zM70 602v110h102v-110h-102zM322 602v110h102v-110h-102zM322 -50v550h102v-560q0 -152 -161 -152h-41v92h40q60 0 60 70z" />
    <glyph glyph-name="Jcircumflex" unicode="&#x134;" horiz-adv-x="518" 
d="M350 232v468h108v-486q0 -111 -59.5 -168.5t-161.5 -57.5q-82 0 -139.5 47.5t-75.5 136.5l108 17q13 -56 42.5 -80t65.5 -24q112 0 112 147zM450 924l119 -161h-84l-81 82l-81 -82h-84l119 161h92z" />
    <glyph glyph-name="jcircumflex" unicode="&#x135;" horiz-adv-x="252" 
d="M80 -50v550h102v-560q0 -152 -161 -152h-41v92h40q60 0 60 70zM177 725l119 -161h-84l-81 82l-81 -82h-84l119 161h92z" />
    <glyph glyph-name="Kcommaaccent" unicode="&#x136;" horiz-adv-x="587" 
d="M522 700v-4q0 -111 -34.5 -184t-129.5 -135l229 -377h-121l-192 322l-96 -62v-260h-108v700h108v-315l79 51q99 64 128.5 118.5t29.5 141.5v4h107zM230 -210h82l63 161h-107z" />
    <glyph glyph-name="kcommaaccent" unicode="&#x137;" horiz-adv-x="486" 
d="M435 500v-5q0 -78 -25.5 -125.5t-87.5 -92.5l169 -277h-115l-133 225l-81 -53v-172h-102v712h102v-425l22 14q87 57 118 94.5t31 99.5v5h102zM185 -210h82l63 161h-107z" />
    <glyph glyph-name="kgreenlandic" unicode="&#x138;" horiz-adv-x="486" 
d="M435 500v-5q0 -78 -25.5 -125.5t-87.5 -92.5l169 -277h-115l-133 225l-81 -53v-172h-102v500h102v-213l22 14q87 57 118 94.5t31 99.5v5h102z" />
    <glyph glyph-name="Lacute" unicode="&#x139;" horiz-adv-x="515" 
d="M70 0v700h108v-603h322v-97h-430zM260 924l-115 -161h-77l85 161h107z" />
    <glyph glyph-name="lacute" unicode="&#x13a;" horiz-adv-x="277" 
d="M172 712v-550q0 -70 60 -70h20v-92h-21q-161 0 -161 152v560h102zM257 924l-115 -161h-77l85 161h107z" />
    <glyph glyph-name="Lcommaaccent" unicode="&#x13b;" horiz-adv-x="515" 
d="M70 0v700h108v-603h322v-97h-430zM212 -210h82l63 161h-107z" />
    <glyph glyph-name="lcommaaccent" unicode="&#x13c;" horiz-adv-x="277" 
d="M172 712v-550q0 -70 60 -70h20v-92h-21q-161 0 -161 152v560h102zM170 -210h-82l38 161h107z" />
    <glyph glyph-name="Lcaron" unicode="&#x13d;" horiz-adv-x="515" 
d="M70 0v700h108v-603h322v-97h-430zM441 712v-115q0 -49 -29.5 -79t-88.5 -36v44q37 6 52.5 21.5t15.5 49.5h-68v115h118z" />
    <glyph glyph-name="lcaron" unicode="&#x13e;" horiz-adv-x="344" 
d="M172 712v-550q0 -70 60 -70h20v-92h-21q-161 0 -161 152v560h102zM339 712v-115q0 -49 -29.5 -79t-88.5 -36v44q37 6 52.5 21.5t15.5 49.5h-68v115h118z" />
    <glyph glyph-name="Ldot" unicode="&#x13f;" horiz-adv-x="515" 
d="M70 0v700h108v-603h322v-97h-430zM436 436v-115h-118v115h118z" />
    <glyph glyph-name="ldot" unicode="&#x140;" horiz-adv-x="396" 
d="M172 712v-550q0 -70 60 -70h20v-92h-21q-161 0 -161 152v560h102zM366 436v-115h-118v115h118z" />
    <glyph glyph-name="Lslash" unicode="&#x141;" horiz-adv-x="515" 
d="M342 384l-164 -87v-200h322v-97h-430v240l-60 -32v85l60 32v375h108v-318l164 87v-85z" />
    <glyph glyph-name="lslash" unicode="&#x142;" horiz-adv-x="277" 
d="M70 263l-60 -32v85l60 32v364h102v-309l80 44v-85l-80 -44v-156q0 -70 60 -70h20v-92h-21q-161 0 -161 152v111z" />
    <glyph glyph-name="Nacute" unicode="&#x143;" horiz-adv-x="650" 
d="M480 0l-302 499v-499h-108v700h100l302 -499v499h108v-700h-100zM446 924l-115 -161h-77l85 161h107z" />
    <glyph glyph-name="nacute" unicode="&#x144;" horiz-adv-x="532" 
d="M60 0v500h102v-62q19 33 57.5 53.5t84.5 20.5q83 0 127.5 -55t44.5 -152v-305h-102v285q0 69 -23 102t-81 33q-33 0 -63.5 -20t-44.5 -53v-347h-102zM392 725l-115 -161h-77l85 161h107z" />
    <glyph glyph-name="Ncommaaccent" unicode="&#x145;" horiz-adv-x="650" 
d="M480 0l-302 499v-499h-108v700h100l302 -499v499h108v-700h-100zM261 -210h82l63 161h-107z" />
    <glyph glyph-name="ncommaaccent" unicode="&#x146;" horiz-adv-x="532" 
d="M60 0v500h102v-62q19 33 57.5 53.5t84.5 20.5q83 0 127.5 -55t44.5 -152v-305h-102v285q0 69 -23 102t-81 33q-33 0 -63.5 -20t-44.5 -53v-347h-102zM187 -210h82l63 161h-107z" />
    <glyph glyph-name="Ncaron" unicode="&#x147;" horiz-adv-x="650" 
d="M480 0l-302 499v-499h-108v700h100l302 -499v499h108v-700h-100zM490 924l-119 -161h-92l-119 161h84l81 -82l81 82h84z" />
    <glyph glyph-name="ncaron" unicode="&#x148;" horiz-adv-x="532" 
d="M60 0v500h102v-62q19 33 57.5 53.5t84.5 20.5q83 0 127.5 -55t44.5 -152v-305h-102v285q0 69 -23 102t-81 33q-33 0 -63.5 -20t-44.5 -53v-347h-102zM431 725l-119 -161h-92l-119 161h84l81 -82l81 82h84z" />
    <glyph glyph-name="napostrophe" unicode="&#x149;" horiz-adv-x="575" 
d="M103 0v500h102v-62q19 33 57.5 53.5t84.5 20.5q83 0 127.5 -55t44.5 -152v-305h-102v285q0 69 -23 102t-81 33q-33 0 -63.5 -20t-44.5 -53v-347h-102zM123 712v-115q0 -49 -29.5 -79t-88.5 -36v44q37 6 52.5 21.5t15.5 49.5h-68v115h118z" />
    <glyph glyph-name="Eng" unicode="&#x14a;" horiz-adv-x="650" 
d="M472 -45v58l-294 486v-499h-108v700h100l302 -499v499h108v-760q0 -152 -161 -152h-41v97h34q60 0 60 70z" />
    <glyph glyph-name="eng" unicode="&#x14b;" horiz-adv-x="532" 
d="M60 0v500h102v-62q19 33 57.5 53.5t84.5 20.5q83 0 127.5 -55t44.5 -152v-365q0 -152 -161 -152h-41v92h40q60 0 60 70v335q0 69 -23 102t-81 33q-33 0 -63.5 -20t-44.5 -53v-347h-102z" />
    <glyph glyph-name="Omacron" unicode="&#x14c;" horiz-adv-x="604" 
d="M50 264v172q0 122 69.5 199t182.5 77t182.5 -77t69.5 -199v-172q0 -122 -69.5 -199t-182.5 -77t-182.5 77t-69.5 199zM158 418v-136q0 -94 38.5 -145.5t105.5 -51.5t105.5 51.5t38.5 145.5v136q0 94 -38.5 145.5t-105.5 51.5t-105.5 -51.5t-38.5 -145.5zM156 804v78h292
v-78h-292z" />
    <glyph glyph-name="omacron" unicode="&#x14d;" horiz-adv-x="516" 
d="M45 195v110q0 84 61 145.5t152 61.5t152 -61.5t61 -145.5v-110q0 -84 -61 -145.5t-152 -61.5t-152 61.5t-61 145.5zM147 285v-70q0 -65 32 -100t79 -35t79 35t32 100v70q0 65 -32 100t-79 35t-79 -35t-32 -100zM112 605v78h292v-78h-292z" />
    <glyph glyph-name="Obreve" unicode="&#x14e;" horiz-adv-x="604" 
d="M50 264v172q0 122 69.5 199t182.5 77t182.5 -77t69.5 -199v-172q0 -122 -69.5 -199t-182.5 -77t-182.5 77t-69.5 199zM158 418v-136q0 -94 38.5 -145.5t105.5 -51.5t105.5 51.5t38.5 145.5v136q0 94 -38.5 145.5t-105.5 51.5t-105.5 -51.5t-38.5 -145.5zM302 765
q-124 0 -154 132l81 16q21 -70 73 -70t73 70l81 -16q-30 -132 -154 -132z" />
    <glyph glyph-name="obreve" unicode="&#x14f;" horiz-adv-x="516" 
d="M45 195v110q0 84 61 145.5t152 61.5t152 -61.5t61 -145.5v-110q0 -84 -61 -145.5t-152 -61.5t-152 61.5t-61 145.5zM147 285v-70q0 -65 32 -100t79 -35t79 35t32 100v70q0 65 -32 100t-79 35t-79 -35t-32 -100zM258 568q-124 0 -154 132l81 16q21 -70 73 -70t73 70
l81 -16q-30 -132 -154 -132z" />
    <glyph glyph-name="Ohungarumlaut" unicode="&#x150;" horiz-adv-x="604" 
d="M50 264v172q0 122 69.5 199t182.5 77t182.5 -77t69.5 -199v-172q0 -122 -69.5 -199t-182.5 -77t-182.5 77t-69.5 199zM158 418v-136q0 -94 38.5 -145.5t105.5 -51.5t105.5 51.5t38.5 145.5v136q0 94 -38.5 145.5t-105.5 51.5t-105.5 -51.5t-38.5 -145.5zM350 924
l-100 -161h-77l70 161h107zM511 924l-115 -161h-77l85 161h107z" />
    <glyph glyph-name="ohungarumlaut" unicode="&#x151;" horiz-adv-x="516" 
d="M45 195v110q0 84 61 145.5t152 61.5t152 -61.5t61 -145.5v-110q0 -84 -61 -145.5t-152 -61.5t-152 61.5t-61 145.5zM147 285v-70q0 -65 32 -100t79 -35t79 35t32 100v70q0 65 -32 100t-79 35t-79 -35t-32 -100zM306 725l-100 -161h-77l70 161h107zM467 725l-115 -161h-77
l85 161h107z" />
    <glyph glyph-name="OE" unicode="&#x152;" horiz-adv-x="889" 
d="M844 97v-97h-542q-114 0 -183 71.5t-69 192.5v172q0 121 69 192.5t183 71.5h542v-97h-322v-195h281v-97h-281v-214h322zM414 97v506h-106q-69 0 -109.5 -46.5t-40.5 -138.5v-136q0 -92 40.5 -138.5t109.5 -46.5h106z" />
    <glyph glyph-name="oe" unicode="&#x153;" horiz-adv-x="840" 
d="M795 212h-324q1 -64 32.5 -98t81.5 -34q75 0 96 65l104 -17q-21 -65 -73 -102.5t-127 -37.5q-113 0 -166 81q-53 -81 -161 -81q-91 0 -152 61.5t-61 145.5v110q0 84 61 145.5t152 61.5q109 0 162 -82q53 82 162 82q91 0 152 -61.5t61 -145.5v-93zM147 285v-70
q0 -65 32 -100t79 -35t79 35t32 100v70q0 65 -32 100t-79 35t-79 -35t-32 -100zM582 420q-46 0 -77.5 -32.5t-33.5 -93.5h222q-3 61 -34.5 93.5t-76.5 32.5z" />
    <glyph glyph-name="Racute" unicode="&#x154;" horiz-adv-x="594" 
d="M456 0l-160 282h-118v-282h-108v700h250q89 0 156 -55t67 -154q0 -74 -38.5 -123.5t-99.5 -71.5l169 -296h-118zM178 379h127q58 0 94 29.5t36 82.5t-36 82.5t-94 29.5h-127v-224zM392 924l-115 -161h-77l85 161h107z" />
    <glyph glyph-name="racute" unicode="&#x155;" horiz-adv-x="375" 
d="M60 0v500h102v-52q50 64 137 64q33 0 61 -12v-93q-38 13 -75 13q-80 0 -123 -68v-352h-102zM311 725l-115 -161h-77l85 161h107z" />
    <glyph glyph-name="Rcommaaccent" unicode="&#x156;" horiz-adv-x="594" 
d="M456 0l-160 282h-118v-282h-108v700h250q89 0 156 -55t67 -154q0 -74 -38.5 -123.5t-99.5 -71.5l169 -296h-118zM178 379h127q58 0 94 29.5t36 82.5t-36 82.5t-94 29.5h-127v-224zM232 -210h82l63 161h-107z" />
    <glyph glyph-name="rcommaaccent" unicode="&#x157;" horiz-adv-x="375" 
d="M60 0v500h102v-52q50 64 137 64q33 0 61 -12v-93q-38 13 -75 13q-80 0 -123 -68v-352h-102zM36 -210h82l63 161h-107z" />
    <glyph glyph-name="Rcaron" unicode="&#x158;" horiz-adv-x="594" 
d="M456 0l-160 282h-118v-282h-108v700h250q89 0 156 -55t67 -154q0 -74 -38.5 -123.5t-99.5 -71.5l169 -296h-118zM178 379h127q58 0 94 29.5t36 82.5t-36 82.5t-94 29.5h-127v-224zM436 924l-119 -161h-92l-119 161h84l81 -82l81 82h84z" />
    <glyph glyph-name="rcaron" unicode="&#x159;" horiz-adv-x="375" 
d="M60 0v500h102v-52q50 64 137 64q33 0 61 -12v-93q-38 13 -75 13q-80 0 -123 -68v-352h-102zM371 725l-119 -161h-92l-119 161h84l81 -82l81 82h84z" />
    <glyph glyph-name="Sacute" unicode="&#x15a;" horiz-adv-x="579" 
d="M539 193q0 -91 -60 -148t-173 -57q-102 0 -172 54.5t-94 150.5l111 20q33 -128 155 -128q57 0 91 29t34 79q0 45 -29.5 72t-93.5 39l-56 10q-96 17 -144.5 68.5t-48.5 130.5q0 81 57.5 140t163.5 59q95 0 159.5 -50t83.5 -139l-110 -20q-28 112 -133 112
q-54 0 -83.5 -29.5t-29.5 -72.5q0 -83 105 -103l59 -11q208 -39 208 -206zM393 924l-115 -161h-77l85 161h107z" />
    <glyph glyph-name="sacute" unicode="&#x15b;" horiz-adv-x="481" 
d="M441 142q0 -68 -50 -111t-133 -43t-140.5 41t-77.5 117l104 18q26 -84 112 -84q38 0 60.5 17t22.5 45q0 57 -76 68l-45 7q-164 26 -164 148q0 65 48 106t130 41q74 0 127.5 -38.5t72.5 -106.5l-104 -18q-7 32 -33 51.5t-62 19.5q-35 0 -56 -16t-21 -41q0 -49 78 -62
l47 -8q89 -15 124.5 -51.5t35.5 -99.5zM356 725l-115 -161h-77l85 161h107z" />
    <glyph glyph-name="Scircumflex" unicode="&#x15c;" horiz-adv-x="579" 
d="M539 193q0 -91 -60 -148t-173 -57q-102 0 -172 54.5t-94 150.5l111 20q33 -128 155 -128q57 0 91 29t34 79q0 45 -29.5 72t-93.5 39l-56 10q-96 17 -144.5 68.5t-48.5 130.5q0 81 57.5 140t163.5 59q95 0 159.5 -50t83.5 -139l-110 -20q-28 112 -133 112
q-54 0 -83.5 -29.5t-29.5 -72.5q0 -83 105 -103l59 -11q208 -39 208 -206zM325 924l119 -161h-84l-81 82l-81 -82h-84l119 161h92z" />
    <glyph glyph-name="scircumflex" unicode="&#x15d;" horiz-adv-x="481" 
d="M441 142q0 -68 -50 -111t-133 -43t-140.5 41t-77.5 117l104 18q26 -84 112 -84q38 0 60.5 17t22.5 45q0 57 -76 68l-45 7q-164 26 -164 148q0 65 48 106t130 41q74 0 127.5 -38.5t72.5 -106.5l-104 -18q-7 32 -33 51.5t-62 19.5q-35 0 -56 -16t-21 -41q0 -49 78 -62
l47 -8q89 -15 124.5 -51.5t35.5 -99.5zM276 725l119 -161h-84l-81 82l-81 -82h-84l119 161h92z" />
    <glyph glyph-name="Scedilla" unicode="&#x15e;" horiz-adv-x="579" 
d="M539 193q0 -82 -49.5 -137.5t-142.5 -65.5l-16 -37q75 -24 75 -92q0 -44 -31 -71.5t-87 -27.5q-64 0 -105 42l44 58q26 -21 55 -21q38 0 38 29q0 34 -78 37l-6 8l31 76q-87 10 -146 62.5t-81 139.5l111 20q33 -128 155 -128q57 0 91 29t34 79q0 45 -29.5 72t-93.5 39
l-56 10q-96 17 -144.5 68.5t-48.5 130.5q0 81 57.5 140t163.5 59q95 0 159.5 -50t83.5 -139l-110 -20q-28 112 -133 112q-54 0 -83.5 -29.5t-29.5 -72.5q0 -83 105 -103l59 -11q208 -39 208 -206z" />
    <glyph glyph-name="scedilla" unicode="&#x15f;" horiz-adv-x="481" 
d="M441 142q0 -59 -38 -100t-104 -51l-16 -38q75 -24 75 -92q0 -44 -31 -71.5t-87 -27.5q-64 0 -105 42l44 58q26 -21 55 -21q38 0 38 29q0 34 -78 37l-6 8l31 76q-69 8 -115.5 48.5t-63.5 106.5l104 18q26 -84 112 -84q38 0 60.5 17t22.5 45q0 57 -76 68l-45 7
q-164 26 -164 148q0 65 48 106t130 41q74 0 127.5 -38.5t72.5 -106.5l-104 -18q-7 32 -33 51.5t-62 19.5q-35 0 -56 -16t-21 -41q0 -49 78 -62l47 -8q89 -15 124.5 -51.5t35.5 -99.5z" />
    <glyph glyph-name="Scaron" unicode="&#x160;" horiz-adv-x="579" 
d="M539 193q0 -91 -60 -148t-173 -57q-102 0 -172 54.5t-94 150.5l111 20q33 -128 155 -128q57 0 91 29t34 79q0 45 -29.5 72t-93.5 39l-56 10q-96 17 -144.5 68.5t-48.5 130.5q0 81 57.5 140t163.5 59q95 0 159.5 -50t83.5 -139l-110 -20q-28 112 -133 112
q-54 0 -83.5 -29.5t-29.5 -72.5q0 -83 105 -103l59 -11q208 -39 208 -206zM444 924l-119 -161h-92l-119 161h84l81 -82l81 82h84z" />
    <glyph glyph-name="scaron" unicode="&#x161;" horiz-adv-x="481" 
d="M441 142q0 -68 -50 -111t-133 -43t-140.5 41t-77.5 117l104 18q26 -84 112 -84q38 0 60.5 17t22.5 45q0 57 -76 68l-45 7q-164 26 -164 148q0 65 48 106t130 41q74 0 127.5 -38.5t72.5 -106.5l-104 -18q-7 32 -33 51.5t-62 19.5q-35 0 -56 -16t-21 -41q0 -49 78 -62
l47 -8q89 -15 124.5 -51.5t35.5 -99.5zM395 725l-119 -161h-92l-119 161h84l81 -82l81 82h84z" />
    <glyph glyph-name="Tcommaaccent" unicode="&#x162;" horiz-adv-x="522" 
d="M134 -196l44 58q26 -21 55 -21q38 0 38 29q0 34 -78 37l-6 8l35 85h-15v603h-192v97h492v-97h-192v-603h-13l-20 -47q75 -24 75 -92q0 -44 -31 -71.5t-87 -27.5q-65 0 -105 42z" />
    <glyph glyph-name="tcommaaccent" unicode="&#x163;" horiz-adv-x="353" 
d="M193 408v-246q0 -70 60 -70h70v-92h-66l-20 -47q75 -24 75 -92q0 -44 -31 -71.5t-87 -27.5q-64 0 -105 42l44 58q26 -21 55 -21q38 0 38 29q0 34 -78 37l-6 8l39 94q-90 30 -90 143v256h-71v92h71v142h102v-142h120v-92h-120z" />
    <glyph glyph-name="Tcaron" unicode="&#x164;" horiz-adv-x="522" 
d="M15 603v97h492v-97h-192v-603h-108v603h-192zM425 924l-119 -161h-92l-119 161h84l81 -82l81 82h84z" />
    <glyph glyph-name="tcaron" unicode="&#x165;" horiz-adv-x="481" 
d="M193 162v246h120v92h-120v142h-102v-142h-71v-92h71v-256q0 -152 161 -152h71v92h-70q-60 0 -60 70zM476 712v-115q0 -49 -29.5 -79t-88.5 -36v44q37 6 52.5 21.5t15.5 49.5h-68v115h118z" />
    <glyph glyph-name="Tbar" unicode="&#x166;" horiz-adv-x="521" 
d="M90 315v84h117v204h-192v97h492v-97h-192v-204h117v-84h-117v-315h-108v315h-117z" />
    <glyph glyph-name="tbar" unicode="&#x167;" horiz-adv-x="353" 
d="M31 231v79h60v98h-71v92h71v142h102v-142h120v-92h-120v-98h98v-79h-98v-69q0 -70 60 -70h70v-92h-71q-161 0 -161 152v79h-60z" />
    <glyph glyph-name="Utilde" unicode="&#x168;" horiz-adv-x="616" 
d="M170 700v-424q0 -191 138 -191t138 191v424h108v-442q0 -123 -65 -196.5t-181 -73.5t-181 73.5t-65 196.5v442h108zM402 898l72 -8q-14 -115 -103 -115q-41 0 -79 32q-25 22 -45 22q-26 0 -33 -45l-72 8q14 115 103 115q41 0 79 -32q25 -22 45 -22q26 0 33 45z" />
    <glyph glyph-name="utilde" unicode="&#x169;" horiz-adv-x="532" 
d="M56 195v305h102v-285q0 -69 23 -102t81 -33q33 0 63.5 20t44.5 53v347h102v-500h-102v62q-19 -33 -57.5 -53.5t-84.5 -20.5q-83 0 -127.5 55t-44.5 152zM360 699l72 -8q-14 -115 -103 -115q-41 0 -79 32q-25 22 -45 22q-26 0 -33 -45l-72 8q14 115 103 115q41 0 79 -32
q25 -22 45 -22q26 0 33 45z" />
    <glyph glyph-name="Umacron" unicode="&#x16a;" horiz-adv-x="616" 
d="M170 700v-424q0 -191 138 -191t138 191v424h108v-442q0 -123 -65 -196.5t-181 -73.5t-181 73.5t-65 196.5v442h108zM162 804v78h292v-78h-292z" />
    <glyph glyph-name="umacron" unicode="&#x16b;" horiz-adv-x="532" 
d="M56 195v305h102v-285q0 -69 23 -102t81 -33q33 0 63.5 20t44.5 53v347h102v-500h-102v62q-19 -33 -57.5 -53.5t-84.5 -20.5q-83 0 -127.5 55t-44.5 152zM120 605v78h292v-78h-292z" />
    <glyph glyph-name="Ubreve" unicode="&#x16c;" horiz-adv-x="616" 
d="M170 700v-424q0 -191 138 -191t138 191v424h108v-442q0 -123 -65 -196.5t-181 -73.5t-181 73.5t-65 196.5v442h108zM308 765q-124 0 -154 132l81 16q21 -70 73 -70t73 70l81 -16q-30 -132 -154 -132z" />
    <glyph glyph-name="ubreve" unicode="&#x16d;" horiz-adv-x="532" 
d="M56 195v305h102v-285q0 -69 23 -102t81 -33q33 0 63.5 20t44.5 53v347h102v-500h-102v62q-19 -33 -57.5 -53.5t-84.5 -20.5q-83 0 -127.5 55t-44.5 152zM266 568q-124 0 -154 132l81 16q21 -70 73 -70t73 70l81 -16q-30 -132 -154 -132z" />
    <glyph glyph-name="Uring" unicode="&#x16e;" horiz-adv-x="616" 
d="M170 276v424h-108v-442q0 -123 65 -196.5t181 -73.5t181 73.5t65 196.5v442h-108v-424q0 -191 -138 -191t-138 191zM414 843q0 -47 -30.5 -75.5t-75.5 -28.5t-75.5 28.5t-30.5 75.5t30.5 75.5t75.5 28.5t75.5 -28.5t30.5 -75.5zM349 843q0 21 -11 33t-30 12t-30 -12
t-11 -33t11 -33t30 -12t30 12t11 33z" />
    <glyph glyph-name="uring" unicode="&#x16f;" horiz-adv-x="532" 
d="M56 195v305h102v-285q0 -69 23 -102t81 -33q33 0 63.5 20t44.5 53v347h102v-500h-102v62q-19 -33 -57.5 -53.5t-84.5 -20.5q-83 0 -127.5 55t-44.5 152zM372 644q0 -47 -30.5 -75.5t-75.5 -28.5t-75.5 28.5t-30.5 75.5t30.5 75.5t75.5 28.5t75.5 -28.5t30.5 -75.5z
M307 644q0 21 -11 33t-30 12t-30 -12t-11 -33t11 -33t30 -12t30 12t11 33z" />
    <glyph glyph-name="Uhungarumlaut" unicode="&#x170;" horiz-adv-x="616" 
d="M170 700v-424q0 -191 138 -191t138 191v424h108v-442q0 -123 -65 -196.5t-181 -73.5t-181 73.5t-65 196.5v442h108zM361 924l-100 -161h-77l70 161h107zM522 924l-115 -161h-77l85 161h107z" />
    <glyph glyph-name="uhungarumlaut" unicode="&#x171;" horiz-adv-x="532" 
d="M56 195v305h102v-285q0 -69 23 -102t81 -33q33 0 63.5 20t44.5 53v347h102v-500h-102v62q-19 -33 -57.5 -53.5t-84.5 -20.5q-83 0 -127.5 55t-44.5 152zM304 725l-100 -161h-77l70 161h107zM465 725l-115 -161h-77l85 161h107z" />
    <glyph glyph-name="Uogonek" unicode="&#x172;" horiz-adv-x="616" 
d="M170 700v-424q0 -191 138 -191t138 191v424h108v-442q0 -103 -47 -172.5t-131 -89.5q-60 -48 -60 -91v-5q0 -17 11.5 -29t29.5 -12q28 0 49 21l49 -52q-42 -47 -111 -47q-52 0 -82.5 26.5t-30.5 70.5v8q0 26 15 54.5t42 48.5q-107 7 -166.5 79t-59.5 190v442h108z" />
    <glyph glyph-name="uogonek" unicode="&#x173;" horiz-adv-x="532" 
d="M370 0v62q-19 -33 -57.5 -53.5t-84.5 -20.5q-83 0 -127.5 55t-44.5 152v305h102v-285q0 -69 23 -102t81 -33q33 0 63.5 20t44.5 53v347h102v-500h-24q-66 -49 -66 -95v-5q0 -17 11.5 -29t29.5 -12q28 0 49 21l49 -52q-42 -47 -111 -47q-52 0 -82.5 26.5t-30.5 70.5v8
q0 29 19.5 61.5t53.5 52.5z" />
    <glyph glyph-name="Wcircumflex" unicode="&#x174;" horiz-adv-x="936" 
d="M667 194l136 506h118l-198 -700h-108l-147 514l-147 -514h-108l-198 700h118l136 -506l146 506h106zM514 924l119 -161h-84l-81 82l-81 -82h-84l119 161h92z" />
    <glyph glyph-name="wcircumflex" unicode="&#x175;" horiz-adv-x="786" 
d="M340 500h106l112 -358l111 358h107l-165 -500h-107l-111 358l-111 -358h-107l-165 500h107l111 -358zM439 725l119 -161h-84l-81 82l-81 -82h-84l119 161h92z" />
    <glyph glyph-name="Ycircumflex" unicode="&#x176;" horiz-adv-x="574" 
d="M441 700l-154 -280l-154 280h-118l218 -384v-316h108v316l218 384h-118zM333 924l119 -161h-84l-81 82l-81 -82h-84l119 161h92z" />
    <glyph glyph-name="ycircumflex" unicode="&#x177;" horiz-adv-x="497" 
d="M176 -65l30 86l-196 479h110l134 -345l123 345h110l-219 -598q-25 -68 -59.5 -90.5t-97.5 -22.5h-39v92h34q26 0 42.5 11.5t27.5 42.5zM296 725l119 -161h-84l-81 82l-81 -82h-84l119 161h92z" />
    <glyph glyph-name="Ydieresis" unicode="&#x178;" horiz-adv-x="574" 
d="M287 420l154 280h118l-218 -384v-316h-108v316l-218 384h118zM249 895v-105h-108v105h108zM433 895v-105h-108v105h108z" />
    <glyph glyph-name="Zacute" unicode="&#x179;" horiz-adv-x="520" 
d="M40 87l315 516h-305v97h430v-87l-315 -516h315v-97h-440v87zM388 924l-115 -161h-77l85 161h107z" />
    <glyph glyph-name="zacute" unicode="&#x17a;" horiz-adv-x="476" 
d="M430 500v-82l-261 -326h271v-92h-404v82l261 326h-250v92h383zM369 725l-115 -161h-77l85 161h107z" />
    <glyph glyph-name="Zdotaccent" unicode="&#x17b;" horiz-adv-x="520" 
d="M40 87l315 516h-305v97h430v-87l-315 -516h315v-97h-440v87zM329 900v-115h-118v115h118z" />
    <glyph glyph-name="zdotaccent" unicode="&#x17c;" horiz-adv-x="476" 
d="M430 500v-82l-261 -326h271v-92h-404v82l261 326h-250v92h383zM299 701v-115h-118v115h118z" />
    <glyph glyph-name="Zcaron" unicode="&#x17d;" horiz-adv-x="520" 
d="M40 87l315 516h-305v97h430v-87l-315 -516h315v-97h-440v87zM435 924l-119 -161h-92l-119 161h84l81 -82l81 82h84z" />
    <glyph glyph-name="zcaron" unicode="&#x17e;" horiz-adv-x="476" 
d="M430 500v-82l-261 -326h271v-92h-404v82l261 326h-250v92h383zM412 725l-119 -161h-92l-119 161h84l81 -82l81 82h84z" />
    <glyph glyph-name="longs" unicode="&#x17f;" horiz-adv-x="348" 
d="M35 408v92h71v4q0 116 40.5 162t155.5 46h26v-92h-35q-51 0 -68 -22t-17 -78v-520h-102v408h-71z" />
    <glyph glyph-name="uni0191" unicode="&#x191;" horiz-adv-x="525" 
d="M70 -45v745h430v-97h-322v-205h291v-97h-291v-361q0 -152 -161 -152h-41v97h34q60 0 60 70z" />
    <glyph glyph-name="florin" unicode="&#x192;" horiz-adv-x="348" 
d="M35 408v92h71v4q0 116 40.5 162t155.5 46h26v-92h-35q-51 0 -68 -22t-17 -78v-20h120v-92h-120v-412q0 -116 -40.5 -162t-155.5 -46h-26v92h35q51 0 68 22t17 78v428h-71z" />
    <glyph glyph-name="Aringacute" unicode="&#x1fa;" horiz-adv-x="594" 
d="M403 760q0 -58 -43 -86l229 -674h-118l-50 157h-249l-49 -157h-118l229 674q-43 27 -43 86q0 47 30.5 75.5t75.5 28.5t75.5 -28.5t30.5 -75.5zM297 554l-94 -300h188zM409 998l-85 -113h-72l55 113h102zM338 760q0 21 -11 33t-30 12t-30 -12t-11 -33t11 -33t30 -12t30 12
t11 33z" />
    <glyph glyph-name="aringacute" unicode="&#x1fb;" horiz-adv-x="509" 
d="M363 644q0 -47 -30.5 -75.5t-75.5 -28.5t-75.5 28.5t-30.5 75.5t30.5 75.5t75.5 28.5t75.5 -28.5t30.5 -75.5zM369 882l-85 -113h-72l55 113h102zM298 644q0 21 -11 33t-30 12t-30 -12t-11 -33t11 -33t30 -12t30 12t11 33zM40 130v15q0 64 52 106.5t162 42.5h97v13
q0 55 -25.5 84t-70.5 29q-67 0 -99 -65l-101 28q29 60 82 94.5t122 34.5q90 0 142 -52.5t52 -137.5v-322h-102v52q-48 -64 -141 -64q-78 0 -124 40.5t-46 101.5zM228 80q40 0 73.5 17t49.5 46v69h-128q-34 0 -57.5 -18.5t-23.5 -48.5v-5q0 -26 21.5 -43t64.5 -17z" />
    <glyph glyph-name="AEacute" unicode="&#x1fc;" horiz-adv-x="867" 
d="M822 700v-97h-322v-195h281v-97h-281v-214h322v-97h-430v157h-216l-76 -157h-120l348 700h494zM223 254h169v349zM667 924l-115 -161h-77l85 161h107z" />
    <glyph glyph-name="aeacute" unicode="&#x1fd;" horiz-adv-x="822" 
d="M252 420q-63 0 -99 -64l-98 27q28 59 79 94t121 35q105 0 155 -73q56 73 161 73q88 0 147 -60.5t59 -146.5v-93h-324v-4q1 -62 32.5 -95t81.5 -33q75 0 96 65l104 -17q-21 -65 -73 -102.5t-127 -37.5q-112 0 -174 81q-69 -81 -183 -81q-80 0 -125 40t-45 102v15
q0 64 52 106.5t162 42.5h97v18q0 52 -26 80t-73 28zM228 80q83 0 123 63v69h-128q-34 0 -57.5 -18.5t-23.5 -48.5v-5q0 -26 21.5 -43t64.5 -17zM564 420q-46 0 -77.5 -32.5t-33.5 -93.5h222q-3 61 -34.5 93.5t-76.5 32.5zM529 725l-115 -161h-77l85 161h107z" />
    <glyph glyph-name="Oslashacute" unicode="&#x1fe;" horiz-adv-x="604" 
d="M463 732h87l-57 -107q61 -75 61 -189v-172q0 -122 -69.5 -199t-182.5 -77q-76 0 -132 35l-29 -55h-87l57 106q-61 75 -61 190v172q0 122 69.5 199t182.5 77q72 0 131 -35zM158 418v-136q0 -51 13 -95l214 400q-34 28 -83 28q-67 0 -105.5 -51.5t-38.5 -145.5zM302 85
q67 0 105.5 51.5t38.5 145.5v136q0 53 -14 95l-214 -400q34 -28 84 -28zM428 924l-115 -161h-77l85 161h107z" />
    <glyph glyph-name="oslashacute" unicode="&#x1ff;" horiz-adv-x="516" 
d="M372 538h82l-46 -85q63 -61 63 -148v-110q0 -84 -61 -145.5t-152 -61.5q-47 0 -90 19l-24 -45h-82l46 85q-63 60 -63 148v110q0 84 61 145.5t152 61.5q47 0 90 -19zM258 80q47 0 79 35t32 100v70q0 40 -14 70l-143 -265q20 -10 46 -10zM147 285v-70q0 -40 13 -71l143 266
q-20 10 -45 10q-47 0 -79 -35t-32 -100zM384 725l-115 -161h-77l85 161h107z" />
    <glyph glyph-name="Scommaaccent" unicode="&#x218;" horiz-adv-x="579" 
d="M539 193q0 -91 -60 -148t-173 -57q-102 0 -172 54.5t-94 150.5l111 20q33 -128 155 -128q57 0 91 29t34 79q0 45 -29.5 72t-93.5 39l-56 10q-96 17 -144.5 68.5t-48.5 130.5q0 81 57.5 140t163.5 59q95 0 159.5 -50t83.5 -139l-110 -20q-28 112 -133 112
q-54 0 -83.5 -29.5t-29.5 -72.5q0 -83 105 -103l59 -11q208 -39 208 -206zM312 -210h-82l38 161h107z" />
    <glyph glyph-name="scommaaccent" unicode="&#x219;" horiz-adv-x="481" 
d="M441 142q0 -68 -50 -111t-133 -43t-140.5 41t-77.5 117l104 18q26 -84 112 -84q38 0 60.5 17t22.5 45q0 57 -76 68l-45 7q-164 26 -164 148q0 65 48 106t130 41q74 0 127.5 -38.5t72.5 -106.5l-104 -18q-7 32 -33 51.5t-62 19.5q-35 0 -56 -16t-21 -41q0 -49 78 -62
l47 -8q89 -15 124.5 -51.5t35.5 -99.5zM263 -210h-82l38 161h107z" />
    <glyph glyph-name="uni021A" unicode="&#x21a;" horiz-adv-x="522" 
d="M15 603v97h492v-97h-192v-603h-108v603h-192zM182 -210h82l63 161h-107z" />
    <glyph glyph-name="uni021B" unicode="&#x21b;" horiz-adv-x="353" 
d="M193 408v-246q0 -70 60 -70h70v-92h-71q-161 0 -161 152v256h-71v92h71v142h102v-142h120v-92h-120zM226 -210h-82l38 161h107z" />
    <glyph glyph-name="dotlessj" unicode="&#x237;" horiz-adv-x="252" 
d="M80 -50v550h102v-560q0 -152 -161 -152h-41v92h40q60 0 60 70z" />
    <glyph glyph-name="apostrophe" unicode="&#x2bc;" horiz-adv-x="380" 
d="M249 730v-115q0 -49 -29.5 -79t-88.5 -36v44q37 6 52.5 21.5t15.5 49.5h-68v115h118z" />
    <glyph glyph-name="circumflex" unicode="&#x2c6;" horiz-adv-x="380" 
d="M236 730l119 -161h-84l-81 82l-81 -82h-84l119 161h92z" />
    <glyph glyph-name="caron" unicode="&#x2c7;" horiz-adv-x="380" 
d="M355 730l-119 -161h-92l-119 161h84l81 -82l81 82h84z" />
    <glyph glyph-name="uni02C9" unicode="&#x2c9;" horiz-adv-x="380" 
d="M44 609v78h292v-78h-292z" />
    <glyph glyph-name="breve" unicode="&#x2d8;" horiz-adv-x="380" 
d="M190 573q-124 0 -154 132l81 16q21 -70 73 -70t73 70l81 -16q-30 -132 -154 -132z" />
    <glyph glyph-name="dotaccent" unicode="&#x2d9;" horiz-adv-x="380" 
d="M249 706v-115h-118v115h118z" />
    <glyph glyph-name="ring" unicode="&#x2da;" horiz-adv-x="380" 
d="M296 649q0 -47 -30.5 -75.5t-75.5 -28.5t-75.5 28.5t-30.5 75.5t30.5 75.5t75.5 28.5t75.5 -28.5t30.5 -75.5zM231 649q0 21 -11 33t-30 12t-30 -12t-11 -33t11 -33t30 -12t30 12t11 33z" />
    <glyph glyph-name="ogonek" unicode="&#x2db;" horiz-adv-x="380" 
d="M151 0h78q-66 -49 -66 -95v-5q0 -17 11.5 -29t29.5 -12q28 0 49 21l49 -52q-42 -47 -111 -47q-52 0 -82.5 26.5t-30.5 70.5v8q0 29 19.5 61.5t53.5 52.5z" />
    <glyph glyph-name="tilde" unicode="&#x2dc;" horiz-adv-x="380" 
d="M284 705l72 -8q-14 -115 -103 -115q-41 0 -79 32q-25 22 -45 22q-26 0 -33 -45l-72 8q14 115 103 115q41 0 79 -32q25 -22 45 -22q26 0 33 45z" />
    <glyph glyph-name="hungarumlaut" unicode="&#x2dd;" horiz-adv-x="380" 
d="M198 730l-100 -161h-77l70 161h107zM359 730l-115 -161h-77l85 161h107z" />
    <glyph glyph-name="gravecomb" unicode="&#x300;" horiz-adv-x="0" 
d="M-213 569l-115 161h107l85 -161h-77z" />
    <glyph glyph-name="acutecomb" unicode="&#x301;" horiz-adv-x="0" 
d="M-136 730l-115 -161h-77l85 161h107z" />
    <glyph glyph-name="uni0302" unicode="&#x302;" horiz-adv-x="0" 
d="M-186 730l119 -161h-84l-81 82l-81 -82h-84l119 161h92z" />
    <glyph glyph-name="tildecomb" unicode="&#x303;" horiz-adv-x="0" 
d="M-138 705l72 -8q-14 -115 -103 -115q-41 0 -79 32q-25 22 -45 22q-26 0 -33 -45l-72 8q14 115 103 115q41 0 79 -32q25 -22 45 -22q26 0 33 45z" />
    <glyph glyph-name="uni0304" unicode="&#x304;" horiz-adv-x="0" 
d="M-378 610v78h292v-78h-292z" />
    <glyph glyph-name="uni0306" unicode="&#x306;" horiz-adv-x="0" 
d="M-232 573q-124 0 -154 132l81 16q21 -70 73 -70t73 70l81 -16q-30 -132 -154 -132z" />
    <glyph glyph-name="uni0307" unicode="&#x307;" horiz-adv-x="0" 
d="M-173 706v-115h-118v115h118z" />
    <glyph glyph-name="uni0308" unicode="&#x308;" horiz-adv-x="0" 
d="M-270 701v-105h-108v105h108zM-86 701v-105h-108v105h108z" />
    <glyph glyph-name="uni030A" unicode="&#x30a;" horiz-adv-x="0" 
d="M-126 649q0 -47 -30.5 -75.5t-75.5 -28.5t-75.5 28.5t-30.5 75.5t30.5 75.5t75.5 28.5t75.5 -28.5t30.5 -75.5zM-191 649q0 21 -11 33t-30 12t-30 -12t-11 -33t11 -33t30 -12t30 12t11 33z" />
    <glyph glyph-name="uni030C" unicode="&#x30c;" horiz-adv-x="0" 
d="M-67 730l-119 -161h-92l-119 161h84l81 -82l81 82h84z" />
    <glyph glyph-name="uni0327" unicode="&#x327;" horiz-adv-x="0" 
d="M-344 -196l44 58q26 -21 55 -21q38 0 38 29q0 34 -78 37l-6 8l35 85h80l-20 -47q75 -24 75 -92q0 -44 -31 -71.5t-87 -27.5q-65 0 -105 42z" />
    <glyph glyph-name="uni03A9" unicode="&#x3a9;" horiz-adv-x="614" 
d="M307 712q113 0 182.5 -77t69.5 -199v-162q0 -123 -79 -177h73v-97h-211v87q109 40 109 195v136q0 94 -38.5 145.5t-105.5 51.5t-105.5 -51.5t-38.5 -145.5v-136q0 -155 109 -195v-87h-211v97h73q-79 54 -79 177v162q0 122 69.5 199t182.5 77z" />
    <glyph glyph-name="uni0400" unicode="&#x400;" horiz-adv-x="545" 
d="M70 0v700h430v-97h-322v-195h281v-97h-281v-214h322v-97h-430zM269 763l-115 161h107l85 -161h-77z" />
    <glyph glyph-name="afii10023" unicode="&#x401;" horiz-adv-x="545" 
d="M70 0v700h430v-97h-322v-195h281v-97h-281v-214h322v-97h-430zM243 895v-105h-108v105h108zM427 895v-105h-108v105h108z" />
    <glyph glyph-name="afii10051" unicode="&#x402;" horiz-adv-x="700" 
d="M547 17v213q0 69 -23 102t-81 33q-71 0 -128 -46v-319h-108v603h-192v97h492v-97h-192v-193q72 52 157 52q87 0 135 -55.5t48 -151.5v-253q0 -152 -161 -152h-41v97h34q60 0 60 70z" />
    <glyph glyph-name="afii10052" unicode="&#x403;" horiz-adv-x="532" 
d="M413 924l-115 -161h-77l85 161h107zM70 0v700h452v-97h-344v-603h-108z" />
    <glyph glyph-name="afii10053" unicode="&#x404;" horiz-adv-x="591" 
d="M50 264v172q0 122 69.5 199t182.5 77q100 0 167.5 -60.5t81.5 -160.5l-107 -18q-13 70 -49.5 106t-92.5 36q-67 0 -105.5 -51.5t-38.5 -145.5v-20h196v-96h-196v-20q0 -94 38.5 -145.5t105.5 -51.5q56 0 92.5 36t49.5 106l107 -18q-14 -100 -81.5 -160.5t-167.5 -60.5
q-113 0 -182.5 77t-69.5 199z" />
    <glyph glyph-name="afii10054" unicode="&#x405;" horiz-adv-x="579" 
d="M539 193q0 -91 -60 -148t-173 -57q-102 0 -172 54.5t-94 150.5l111 20q33 -128 155 -128q57 0 91 29t34 79q0 45 -29.5 72t-93.5 39l-56 10q-96 17 -144.5 68.5t-48.5 130.5q0 81 57.5 140t163.5 59q95 0 159.5 -50t83.5 -139l-110 -20q-28 112 -133 112
q-54 0 -83.5 -29.5t-29.5 -72.5q0 -83 105 -103l59 -11q208 -39 208 -206z" />
    <glyph glyph-name="afii10055" unicode="&#x406;" horiz-adv-x="248" 
d="M178 700v-700h-108v700h108z" />
    <glyph glyph-name="afii10056" unicode="&#x407;" horiz-adv-x="248" 
d="M178 700v-700h-108v700h108zM86 895v-105h-108v105h108zM270 895v-105h-108v105h108z" />
    <glyph glyph-name="afii10057" unicode="&#x408;" horiz-adv-x="518" 
d="M350 232v468h108v-486q0 -111 -59.5 -168.5t-161.5 -57.5q-82 0 -139.5 47.5t-75.5 136.5l108 17q13 -56 42.5 -80t65.5 -24q112 0 112 147z" />
    <glyph glyph-name="afii10058" unicode="&#x409;" horiz-adv-x="989" 
d="M959 204q0 -95 -63 -149.5t-174 -54.5h-236v603h-254v-463q0 -152 -161 -152h-51v97h44q60 0 60 70v545h470v-292h128q111 0 174 -54.5t63 -149.5zM714 311h-120v-214h120q137 0 137 107t-137 107z" />
    <glyph glyph-name="afii10059" unicode="&#x40a;" horiz-adv-x="945" 
d="M915 204q0 -95 -63 -149.5t-174 -54.5h-236v311h-264v-311h-108v700h108v-292h264v292h108v-292h128q111 0 174 -54.5t63 -149.5zM670 311h-120v-214h120q137 0 137 107t-137 107z" />
    <glyph glyph-name="afii10060" unicode="&#x40b;" horiz-adv-x="700" 
d="M655 255v-255h-108v230q0 69 -23 102t-81 33q-71 0 -128 -46v-319h-108v603h-192v97h492v-97h-192v-193q72 52 157 52q87 0 135 -55.5t48 -151.5z" />
    <glyph glyph-name="afii10061" unicode="&#x40c;" horiz-adv-x="587" 
d="M522 700v-4q0 -111 -34.5 -184t-129.5 -135l229 -377h-121l-192 322l-96 -62v-260h-108v700h108v-315l79 51q99 64 128.5 118.5t29.5 141.5v4h107zM415 924l-115 -161h-77l85 161h107z" />
    <glyph glyph-name="uni040D" unicode="&#x40d;" horiz-adv-x="650" 
d="M480 700l-302 -499v499h-108v-700h100l302 499v-499h108v700h-100zM319 763l-115 161h107l85 -161h-77z" />
    <glyph glyph-name="afii10062" unicode="&#x40e;" horiz-adv-x="552" 
d="M208 151l28 71l-216 478h114l151 -351l138 351h114l-235 -587q-27 -68 -61 -90.5t-96 -22.5h-39v97h32q26 0 42 11.5t28 42.5zM279 765q-124 0 -154 132l81 16q21 -70 73 -70t73 70l81 -16q-30 -132 -154 -132z" />
    <glyph glyph-name="afii10145" unicode="&#x40f;" horiz-adv-x="620" 
d="M442 97v603h108v-700h-186v-120h-108v120h-186v700h108v-603h264z" />
    <glyph glyph-name="afii10017" unicode="&#x410;" horiz-adv-x="594" 
d="M471 0l-50 157h-249l-49 -157h-118l238 700h108l238 -700h-118zM297 554l-94 -300h188z" />
    <glyph glyph-name="afii10018" unicode="&#x411;" horiz-adv-x="578" 
d="M543 204q0 -95 -63 -149.5t-174 -54.5h-236v700h400v-97h-292v-195h128q111 0 174 -54.5t63 -149.5zM298 311h-120v-214h120q137 0 137 107t-137 107z" />
    <glyph glyph-name="afii10019" unicode="&#x412;" horiz-adv-x="583" 
d="M320 0h-250v700h230q91 0 157 -48.5t66 -145.5q0 -51 -24 -87.5t-66 -53.5q49 -18 79.5 -61.5t30.5 -99.5q0 -100 -64 -152t-159 -52zM308 312h-130v-215h127q130 0 130 107q0 52 -35 80t-92 28zM178 409h107q130 0 130 97t-130 97h-107v-194z" />
    <glyph glyph-name="afii10020" unicode="&#x413;" horiz-adv-x="532" 
d="M70 0v700h452v-97h-344v-603h-108z" />
    <glyph glyph-name="afii10021" unicode="&#x414;" horiz-adv-x="621" 
d="M596 97v-217h-108v120h-365v-120h-108v217h60q51 145 51 335v268h402v-603h68zM188 97h232v506h-186v-180q0 -179 -46 -326z" />
    <glyph glyph-name="afii10022" unicode="&#x415;" horiz-adv-x="545" 
d="M70 0v700h430v-97h-322v-195h281v-97h-281v-214h322v-97h-430z" />
    <glyph glyph-name="afii10024" unicode="&#x416;" horiz-adv-x="842" 
d="M63 696v4h107v-4q0 -112 23.5 -160.5t114.5 -111.5l59 -41v317h108v-317l59 41q91 63 114.5 111.5t23.5 160.5v4h107v-4q0 -125 -26 -190t-102 -123l183 -383h-116l-150 325l-93 -65v-260h-108v260l-93 64l-150 -324h-116l182 383q-76 57 -101.5 122.5t-25.5 190.5z" />
    <glyph glyph-name="afii10025" unicode="&#x417;" horiz-adv-x="560" 
d="M293 85q59 0 91.5 29.5t32.5 79.5q0 62 -42.5 93t-119.5 31h-45v97h45q139 0 139 103q0 43 -27.5 70t-74.5 27q-102 0 -130 -112l-105 19q21 93 81.5 141.5t153.5 48.5q94 0 152 -54t58 -139q0 -109 -95 -153q56 -22 87 -66.5t31 -106.5q0 -89 -59.5 -147t-171.5 -58
q-101 0 -168.5 52t-90.5 154l106 19q35 -128 152 -128z" />
    <glyph glyph-name="afii10026" unicode="&#x418;" horiz-adv-x="650" 
d="M178 201l302 499h100v-700h-108v499l-302 -499h-100v700h108v-499z" />
    <glyph glyph-name="afii10027" unicode="&#x419;" horiz-adv-x="650" 
d="M178 201l302 499h100v-700h-108v499l-302 -499h-100v700h108v-499zM325 765q-124 0 -154 132l81 16q21 -70 73 -70t73 70l81 -16q-30 -132 -154 -132z" />
    <glyph glyph-name="afii10028" unicode="&#x41a;" horiz-adv-x="587" 
d="M522 700v-4q0 -111 -34.5 -184t-129.5 -135l229 -377h-121l-192 322l-96 -62v-260h-108v700h108v-315l79 51q99 64 128.5 118.5t29.5 141.5v4h107z" />
    <glyph glyph-name="afii10029" unicode="&#x41b;" horiz-adv-x="664" 
d="M124 155v545h470v-700h-108v603h-254v-463q0 -152 -161 -152h-51v97h44q60 0 60 70z" />
    <glyph glyph-name="afii10030" unicode="&#x41c;" horiz-adv-x="760" 
d="M335 184l-157 289v-473h-108v700h93l217 -398l217 398h93v-700h-108v473l-157 -289h-90z" />
    <glyph glyph-name="afii10031" unicode="&#x41d;" horiz-adv-x="620" 
d="M442 0v311h-264v-311h-108v700h108v-292h264v292h108v-700h-108z" />
    <glyph glyph-name="afii10032" unicode="&#x41e;" horiz-adv-x="604" 
d="M50 264v172q0 122 69.5 199t182.5 77t182.5 -77t69.5 -199v-172q0 -122 -69.5 -199t-182.5 -77t-182.5 77t-69.5 199zM158 418v-136q0 -94 38.5 -145.5t105.5 -51.5t105.5 51.5t38.5 145.5v136q0 94 -38.5 145.5t-105.5 51.5t-105.5 -51.5t-38.5 -145.5z" />
    <glyph glyph-name="afii10033" unicode="&#x41f;" horiz-adv-x="620" 
d="M442 0v603h-264v-603h-108v700h480v-700h-108z" />
    <glyph glyph-name="afii10034" unicode="&#x420;" horiz-adv-x="583" 
d="M320 272h-142v-272h-108v700h250q89 0 156 -56t67 -158q0 -103 -67 -158.5t-156 -55.5zM178 369h127q58 0 94 30.5t36 86.5q0 57 -36 87t-94 30h-127v-234z" />
    <glyph glyph-name="afii10035" unicode="&#x421;" horiz-adv-x="591" 
d="M50 264v172q0 122 69.5 199t182.5 77q100 0 167.5 -60.5t81.5 -160.5l-107 -18q-13 70 -49.5 106t-92.5 36q-67 0 -105.5 -51.5t-38.5 -145.5v-136q0 -94 38.5 -145.5t105.5 -51.5q56 0 92.5 36t49.5 106l107 -18q-14 -100 -81.5 -160.5t-167.5 -60.5q-113 0 -182.5 77
t-69.5 199z" />
    <glyph glyph-name="afii10036" unicode="&#x422;" horiz-adv-x="522" 
d="M15 603v97h492v-97h-192v-603h-108v603h-192z" />
    <glyph glyph-name="afii10037" unicode="&#x423;" horiz-adv-x="552" 
d="M208 151l28 71l-216 478h114l151 -351l138 351h114l-235 -587q-27 -68 -61 -90.5t-96 -22.5h-39v97h32q26 0 42 11.5t28 42.5z" />
    <glyph glyph-name="afii10038" unicode="&#x424;" horiz-adv-x="752" 
d="M40 324v52q0 100 74.5 168t187.5 68h20v88h108v-88h20q113 0 187.5 -68t74.5 -168v-52q0 -100 -74.5 -168t-187.5 -68h-20v-88h-108v88h-20q-113 0 -187.5 68t-74.5 168zM302 185h20v330h-20q-68 0 -111 -43t-43 -114v-16q0 -71 43 -114t111 -43zM450 515h-20v-330h20
q68 0 111 43t43 114v16q0 71 -43 114t-111 43z" />
    <glyph glyph-name="afii10039" unicode="&#x425;" horiz-adv-x="606" 
d="M20 0l215 362l-200 338h121l147 -248l147 248h121l-201 -338l216 -362h-121l-162 271l-162 -271h-121z" />
    <glyph glyph-name="afii10040" unicode="&#x426;" horiz-adv-x="643" 
d="M618 97v-217h-108v120h-440v700h108v-603h264v603h108v-603h68z" />
    <glyph glyph-name="afii10041" unicode="&#x427;" horiz-adv-x="598" 
d="M55 445v255h108v-230q0 -74 27 -104.5t89 -30.5q85 0 141 46v319h108v-700h-108v290q-67 -52 -170 -52q-92 0 -143.5 52.5t-51.5 154.5z" />
    <glyph glyph-name="afii10042" unicode="&#x428;" horiz-adv-x="952" 
d="M774 97v603h108v-700h-812v700h108v-603h244v603h108v-603h244z" />
    <glyph glyph-name="afii10043" unicode="&#x429;" horiz-adv-x="975" 
d="M950 97v-217h-108v120h-772v700h108v-603h244v603h108v-603h244v603h108v-603h68z" />
    <glyph glyph-name="afii10044" unicode="&#x42a;" horiz-adv-x="700" 
d="M670 204q0 -95 -63 -149.5t-174 -54.5h-236v603h-182v97h290v-292h128q111 0 174 -54.5t63 -149.5zM425 311h-120v-214h120q137 0 137 107t-137 107z" />
    <glyph glyph-name="afii10045" unicode="&#x42b;" horiz-adv-x="799" 
d="M543 204q0 -95 -63 -149.5t-174 -54.5h-236v700h108v-292h128q111 0 174 -54.5t63 -149.5zM298 311h-120v-214h120q137 0 137 107t-137 107zM729 700v-700h-108v700h108z" />
    <glyph glyph-name="afii10046" unicode="&#x42c;" horiz-adv-x="573" 
d="M543 204q0 -95 -63 -149.5t-174 -54.5h-236v700h108v-292h128q111 0 174 -54.5t63 -149.5zM298 311h-120v-214h120q137 0 137 107t-137 107z" />
    <glyph glyph-name="afii10047" unicode="&#x42d;" horiz-adv-x="591" 
d="M541 436v-172q0 -122 -69.5 -199t-182.5 -77q-100 0 -167.5 60.5t-81.5 160.5l107 18q13 -70 49.5 -106t92.5 -36q67 0 105.5 51.5t38.5 145.5v20h-196v96h196v20q0 94 -38.5 145.5t-105.5 51.5q-56 0 -92.5 -36t-49.5 -106l-107 18q14 100 81.5 160.5t167.5 60.5
q113 0 182.5 -77t69.5 -199z" />
    <glyph glyph-name="afii10048" unicode="&#x42e;" horiz-adv-x="792" 
d="M238 264v38h-60v-302h-108v700h108v-301h60v37q0 122 69.5 199t182.5 77t182.5 -77t69.5 -199v-172q0 -122 -69.5 -199t-182.5 -77t-182.5 77t-69.5 199zM346 418v-136q0 -94 38.5 -145.5t105.5 -51.5t105.5 51.5t38.5 145.5v136q0 94 -38.5 145.5t-105.5 51.5
t-105.5 -51.5t-38.5 -145.5z" />
    <glyph glyph-name="afii10049" unicode="&#x42f;" horiz-adv-x="591" 
d="M295 282l-160 -282h-118l168 296q-61 22 -99 71.5t-38 123.5q0 99 67 154t156 55h250v-700h-108v282h-118zM286 379h127v224h-127q-58 0 -94 -29.5t-36 -82.5t36 -82.5t94 -29.5z" />
    <glyph glyph-name="afii10065" unicode="&#x430;" horiz-adv-x="509" 
d="M40 130v15q0 64 52 106.5t162 42.5h97v13q0 55 -25.5 84t-70.5 29q-67 0 -99 -65l-101 28q29 60 82 94.5t122 34.5q90 0 142 -52.5t52 -137.5v-322h-102v52q-48 -64 -141 -64q-78 0 -124 40.5t-46 101.5zM228 80q40 0 73.5 17t49.5 46v69h-128q-34 0 -57.5 -18.5
t-23.5 -48.5v-5q0 -26 21.5 -43t64.5 -17z" />
    <glyph glyph-name="afii10066" unicode="&#x431;" horiz-adv-x="512" 
d="M467 305v-110q0 -89 -53 -148t-154 -59t-154.5 59t-53.5 148v266q0 110 38 155t138 64l172 32l22 -88l-183 -33q-48 -8 -66.5 -32.5t-18.5 -84.5v-26q18 28 54 46t78 18q87 0 134 -59t47 -148zM365 212v73q0 135 -113 135q-65 0 -98 -63v-145q0 -66 29 -99t77 -33
t76.5 33t28.5 99z" />
    <glyph glyph-name="afii10067" unicode="&#x432;" horiz-adv-x="476" 
d="M278 0h-218v500h204q78 0 121.5 -37.5t43.5 -97.5q0 -74 -64 -104q35 -15 56.5 -45t21.5 -70q0 -66 -42.5 -106t-122.5 -40zM162 303h92q72 0 72 53t-72 53h-92v-106zM341 152q0 61 -80 61h-99v-122h99q80 0 80 61z" />
    <glyph glyph-name="afii10068" unicode="&#x433;" horiz-adv-x="422" 
d="M162 408v-408h-102v500h342v-92h-240z" />
    <glyph glyph-name="afii10069" unicode="&#x434;" horiz-adv-x="513" 
d="M495 92v-202h-102v110h-281v-110h-102v202h58q32 104 32 246v162h333v-408h62zM171 92h160v316h-129v-80q0 -133 -31 -236z" />
    <glyph glyph-name="afii10070" unicode="&#x435;" horiz-adv-x="516" 
d="M471 212h-324q1 -65 32 -98.5t82 -33.5q75 0 96 65l104 -17q-21 -65 -73 -102.5t-127 -37.5q-96 0 -156 61t-60 146v110q0 84 61 145.5t152 61.5t152 -61.5t61 -145.5v-93zM258 420q-46 0 -77.5 -32.5t-33.5 -93.5h222q-3 61 -34.5 93.5t-76.5 32.5z" />
    <glyph glyph-name="afii10072" unicode="&#x436;" horiz-adv-x="682" 
d="M625 500v-5q0 -96 -17.5 -145.5t-67.5 -89.5l139 -260h-110l-108 207l-69 -45v-162h-102v162l-70 45l-107 -207h-110l138 260q-50 40 -67 89.5t-17 145.5v5h102v-5q0 -85 20 -123.5t89 -82.5l22 -14v225h102v-225l22 14q69 44 89 82.5t20 123.5v5h102z" />
    <glyph glyph-name="afii10073" unicode="&#x437;" horiz-adv-x="454" 
d="M236 79q39 0 61 17t22 46q0 71 -112 71h-37v91h37q96 0 96 59q0 27 -18 43t-51 16q-63 0 -84 -65l-101 18q18 67 65.5 102t116.5 35q77 0 125 -42t48 -107q0 -36 -20.5 -65t-54.5 -41q42 -13 67 -44t25 -73q0 -64 -49.5 -108t-134.5 -44q-72 0 -126.5 38t-77.5 111
l102 18q28 -76 101 -76z" />
    <glyph glyph-name="afii10074" unicode="&#x438;" horiz-adv-x="522" 
d="M162 179l205 321h95v-500h-102v321l-205 -321h-95v500h102v-321z" />
    <glyph glyph-name="afii10075" unicode="&#x439;" horiz-adv-x="522" 
d="M162 179l205 321h95v-500h-102v321l-205 -321h-95v500h102v-321zM261 568q-124 0 -154 132l81 16q21 -70 73 -70t73 70l81 -16q-30 -132 -154 -132z" />
    <glyph glyph-name="afii10076" unicode="&#x43a;" horiz-adv-x="486" 
d="M435 500v-5q0 -78 -25.5 -125.5t-87.5 -92.5l169 -277h-115l-133 225l-81 -53v-172h-102v500h102v-213l22 14q87 57 118 94.5t31 99.5v5h102z" />
    <glyph glyph-name="afii10077" unicode="&#x43b;" horiz-adv-x="549" 
d="M100 150v350h389v-500h-102v408h-185v-268q0 -152 -157 -152h-30v92h29q56 0 56 70z" />
    <glyph glyph-name="afii10078" unicode="&#x43c;" horiz-adv-x="618" 
d="M162 0h-102v500h97l152 -260l152 260h97v-500h-102v327l-121 -206h-52l-121 207v-328z" />
    <glyph glyph-name="afii10079" unicode="&#x43d;" horiz-adv-x="512" 
d="M452 500v-500h-102v210h-188v-210h-102v500h102v-198h188v198h102z" />
    <glyph glyph-name="afii10080" unicode="&#x43e;" horiz-adv-x="516" 
d="M45 195v110q0 84 61 145.5t152 61.5t152 -61.5t61 -145.5v-110q0 -84 -61 -145.5t-152 -61.5t-152 61.5t-61 145.5zM147 285v-70q0 -65 32 -100t79 -35t79 35t32 100v70q0 65 -32 100t-79 35t-79 -35t-32 -100z" />
    <glyph glyph-name="afii10081" unicode="&#x43f;" horiz-adv-x="517" 
d="M457 500v-500h-102v408h-193v-408h-102v500h397z" />
    <glyph glyph-name="afii10082" unicode="&#x440;" horiz-adv-x="520" 
d="M475 305v-110q0 -89 -47 -148t-134 -59q-42 0 -78 18t-54 46v-270h-102v718h102v-52q18 28 54 46t78 18q87 0 134 -59t47 -148zM260 420q-65 0 -98 -63v-214q33 -63 98 -63q113 0 113 135v70q0 135 -113 135z" />
    <glyph glyph-name="afii10083" unicode="&#x441;" horiz-adv-x="495" 
d="M45 195v110q0 84 61 145.5t152 61.5q76 0 130 -45t72 -114l-103 -17q-9 41 -36 62.5t-63 21.5q-47 0 -79 -35t-32 -100v-70q0 -65 32 -100t79 -35q36 0 63 21.5t36 62.5l103 -17q-18 -69 -72 -114t-130 -45q-91 0 -152 61.5t-61 145.5z" />
    <glyph glyph-name="afii10084" unicode="&#x442;" horiz-adv-x="438" 
d="M15 408v92h408v-92h-153v-408h-102v408h-153z" />
    <glyph glyph-name="afii10085" unicode="&#x443;" horiz-adv-x="497" 
d="M176 -65l30 86l-196 479h110l134 -345l123 345h110l-219 -598q-25 -68 -59.5 -90.5t-97.5 -22.5h-39v92h34q26 0 42.5 11.5t27.5 42.5z" />
    <glyph glyph-name="afii10086" unicode="&#x444;" horiz-adv-x="818" 
d="M773 305v-110q0 -89 -47 -148t-134 -59q-42 0 -78 18t-54 46v-270h-102v270q-18 -28 -54 -46t-78 -18q-87 0 -134 59t-47 148v110q0 89 47 148t134 59q42 0 78 -18t54 -46v264h102v-264q18 28 54 46t78 18q87 0 134 -59t47 -148zM558 420q-65 0 -98 -63v-214
q33 -63 98 -63q113 0 113 135v70q0 135 -113 135zM260 80q65 0 98 63v214q-33 63 -98 63q-113 0 -113 -135v-70q0 -135 113 -135z" />
    <glyph glyph-name="afii10087" unicode="&#x445;" horiz-adv-x="472" 
d="M346 0l-110 175l-110 -175h-116l162 257l-152 243h116l100 -161l100 161h116l-152 -243l162 -257h-116z" />
    <glyph glyph-name="afii10088" unicode="&#x446;" horiz-adv-x="537" 
d="M519 92v-202h-102v110h-357v500h102v-408h193v408h102v-408h62z" />
    <glyph glyph-name="afii10089" unicode="&#x447;" horiz-adv-x="501" 
d="M50 357v143h102v-123q0 -71 19 -103t75 -32q52 0 93 29v229h102v-500h-102v186q-47 -36 -117 -36q-172 0 -172 207z" />
    <glyph glyph-name="afii10090" unicode="&#x448;" horiz-adv-x="782" 
d="M722 500v-500h-662v500h102v-408h178v408h102v-408h178v408h102z" />
    <glyph glyph-name="afii10091" unicode="&#x449;" horiz-adv-x="802" 
d="M682 0h-622v500h102v-408h178v408h102v-408h178v408h102v-408h62v-202h-102v110z" />
    <glyph glyph-name="afii10092" unicode="&#x44a;" horiz-adv-x="572" 
d="M161 0v408h-146v92h248v-178h104q79 0 129.5 -43t50.5 -118t-50.5 -118t-129.5 -43h-206zM445 161q0 69 -90 69h-92v-138h92q90 0 90 69z" />
    <glyph glyph-name="afii10093" unicode="&#x44b;" horiz-adv-x="670" 
d="M60 0v500h102v-178h104q79 0 129.5 -43t50.5 -118t-50.5 -118t-129.5 -43h-206zM344 161q0 69 -90 69h-92v-138h92q90 0 90 69zM508 0v500h102v-500h-102z" />
    <glyph glyph-name="afii10094" unicode="&#x44c;" horiz-adv-x="471" 
d="M60 0v500h102v-178h104q79 0 129.5 -43t50.5 -118t-50.5 -118t-129.5 -43h-206zM344 161q0 69 -90 69h-92v-138h92q90 0 90 69z" />
    <glyph glyph-name="afii10095" unicode="&#x44d;" horiz-adv-x="495" 
d="M450 305v-110q0 -84 -61 -145.5t-152 -61.5q-76 0 -130 45t-72 114l103 17q9 -41 36 -62.5t63 -21.5q45 0 76.5 32.5t34.5 93.5h-145v88h145q-3 61 -34.5 93.5t-76.5 32.5q-36 0 -63 -21.5t-36 -62.5l-103 17q18 69 72 114t130 45q91 0 152 -61.5t61 -145.5z" />
    <glyph glyph-name="afii10096" unicode="&#x44e;" horiz-adv-x="690" 
d="M219 195v9h-47v-204h-102v500h102v-204h47v9q0 84 61 145.5t152 61.5t152 -61.5t61 -145.5v-110q0 -84 -61 -145.5t-152 -61.5t-152 61.5t-61 145.5zM321 285v-70q0 -65 32 -100t79 -35t79 35t32 100v70q0 65 -32 100t-79 35t-79 -35t-32 -100z" />
    <glyph glyph-name="afii10097" unicode="&#x44f;" horiz-adv-x="496" 
d="M245 187l-111 -187h-109l119 202q-96 39 -96 142q0 73 51 114.5t128 41.5h209v-500h-102v187h-89zM233 280h101v128h-101q-38 0 -60.5 -16.5t-22.5 -47.5t22.5 -47.5t60.5 -16.5z" />
    <glyph glyph-name="uni0450" unicode="&#x450;" horiz-adv-x="516" 
d="M471 212h-324q1 -65 32 -98.5t82 -33.5q75 0 96 65l104 -17q-21 -65 -73 -102.5t-127 -37.5q-96 0 -156 61t-60 146v110q0 84 61 145.5t152 61.5t152 -61.5t61 -145.5v-93zM258 420q-46 0 -77.5 -32.5t-33.5 -93.5h222q-3 61 -34.5 93.5t-76.5 32.5zM247 564l-115 161
h107l85 -161h-77z" />
    <glyph glyph-name="afii10071" unicode="&#x451;" horiz-adv-x="516" 
d="M147 212h324v93q0 84 -61 145.5t-152 61.5t-152 -61.5t-61 -145.5v-110q0 -85 60 -146t156 -61q75 0 127 37.5t73 102.5l-104 17q-21 -65 -96 -65q-51 0 -82 33.5t-32 98.5zM258 420q45 0 76.5 -32.5t34.5 -93.5h-222q2 61 33.5 93.5t77.5 32.5zM220 696v-105h-108v105
h108zM404 696v-105h-108v105h108z" />
    <glyph glyph-name="afii10099" unicode="&#x452;" horiz-adv-x="532" 
d="M476 305v-365q0 -152 -161 -152h-41v92h40q60 0 60 70v335q0 69 -23 102t-81 33q-33 0 -63.5 -20t-44.5 -53v-347h-102v577h-60v79h60v56h102v-56h128v-79h-128v-139q19 33 57.5 53.5t84.5 20.5q83 0 127.5 -55t44.5 -152z" />
    <glyph glyph-name="afii10100" unicode="&#x453;" horiz-adv-x="422" 
d="M162 408v-408h-102v500h342v-92h-240zM345 725l-115 -161h-77l85 161h107z" />
    <glyph glyph-name="afii10101" unicode="&#x454;" horiz-adv-x="495" 
d="M45 195v110q0 84 61 145.5t152 61.5q76 0 130 -45t72 -114l-103 -17q-9 41 -36 62.5t-63 21.5q-46 0 -77.5 -32.5t-33.5 -93.5h145v-88h-145q2 -61 33.5 -93.5t77.5 -32.5q36 0 63 21.5t36 62.5l103 -17q-18 -69 -72 -114t-130 -45q-91 0 -152 61.5t-61 145.5z" />
    <glyph glyph-name="afii10102" unicode="&#x455;" horiz-adv-x="481" 
d="M441 142q0 -68 -50 -111t-133 -43t-140.5 41t-77.5 117l104 18q26 -84 112 -84q38 0 60.5 17t22.5 45q0 57 -76 68l-45 7q-164 26 -164 148q0 65 48 106t130 41q74 0 127.5 -38.5t72.5 -106.5l-104 -18q-7 32 -33 51.5t-62 19.5q-35 0 -56 -16t-21 -41q0 -49 78 -62
l47 -8q89 -15 124.5 -51.5t35.5 -99.5z" />
    <glyph glyph-name="afii10103" unicode="&#x456;" horiz-adv-x="242" 
d="M70 0v500h102v-500h-102zM70 602v110h102v-110h-102z" />
    <glyph glyph-name="afii10104" unicode="&#x457;" horiz-adv-x="242" 
d="M70 0v500h102v-500h-102zM83 696v-105h-108v105h108zM267 696v-105h-108v105h108z" />
    <glyph glyph-name="afii10105" unicode="&#x458;" horiz-adv-x="252" 
d="M80 602v110h102v-110h-102zM80 -50v550h102v-560q0 -152 -161 -152h-41v92h40q60 0 60 70z" />
    <glyph glyph-name="afii10106" unicode="&#x459;" horiz-adv-x="798" 
d="M100 150v350h389v-178h104q79 0 129.5 -43t50.5 -118t-50.5 -118t-129.5 -43h-206v408h-185v-268q0 -152 -157 -152h-30v92h29q56 0 56 70zM671 161q0 69 -90 69h-92v-138h92q90 0 90 69z" />
    <glyph glyph-name="afii10107" unicode="&#x45a;" horiz-adv-x="761" 
d="M556 0h-206v210h-188v-210h-102v500h102v-198h188v198h102v-178h104q79 0 129.5 -43t50.5 -118t-50.5 -118t-129.5 -43zM634 161q0 69 -90 69h-92v-138h92q90 0 90 69z" />
    <glyph glyph-name="afii10108" unicode="&#x45b;" horiz-adv-x="532" 
d="M476 305v-305h-102v285q0 69 -23 102t-81 33q-33 0 -63.5 -20t-44.5 -53v-347h-102v577h-60v79h60v56h102v-56h128v-79h-128v-139q19 33 57.5 53.5t84.5 20.5q83 0 127.5 -55t44.5 -152z" />
    <glyph glyph-name="afii10109" unicode="&#x45c;" horiz-adv-x="486" 
d="M435 500v-5q0 -78 -25.5 -125.5t-87.5 -92.5l169 -277h-115l-133 225l-81 -53v-172h-102v500h102v-213l22 14q87 57 118 94.5t31 99.5v5h102zM369 725l-115 -161h-77l85 161h107z" />
    <glyph glyph-name="uni045D" unicode="&#x45d;" horiz-adv-x="522" 
d="M367 500l-205 -321v321h-102v-500h95l205 321v-321h102v500h-95zM255 564l-115 161h107l85 -161h-77z" />
    <glyph glyph-name="afii10110" unicode="&#x45e;" horiz-adv-x="497" 
d="M176 -65l30 86l-196 479h110l134 -345l123 345h110l-219 -598q-25 -68 -59.5 -90.5t-97.5 -22.5h-39v92h34q26 0 42.5 11.5t27.5 42.5zM248 568q-124 0 -154 132l81 16q21 -70 73 -70t73 70l81 -16q-30 -132 -154 -132z" />
    <glyph glyph-name="afii10193" unicode="&#x45f;" horiz-adv-x="517" 
d="M207 0h-147v500h102v-408h193v408h102v-500h-148v-110h-102v110z" />
    <glyph glyph-name="afii10050" unicode="&#x490;" horiz-adv-x="532" 
d="M522 840v-237h-344v-603h-108v700h344v140h108z" />
    <glyph glyph-name="afii10098" unicode="&#x491;" horiz-adv-x="422" 
d="M300 500v108h102v-200h-240v-408h-102v500h240z" />
    <glyph glyph-name="Wgrave" unicode="&#x1e80;" horiz-adv-x="936" 
d="M667 194l136 506h118l-198 -700h-108l-147 514l-147 -514h-108l-198 700h118l136 -506l146 506h106zM457 763l-115 161h107l85 -161h-77z" />
    <glyph glyph-name="wgrave" unicode="&#x1e81;" horiz-adv-x="786" 
d="M446 500h-106l-112 -358l-111 358h-107l165 -500h107l111 358l111 -358h107l165 500h-107l-111 -358zM382 564l-115 161h107l85 -161h-77z" />
    <glyph glyph-name="Wacute" unicode="&#x1e82;" horiz-adv-x="936" 
d="M667 194l136 506h118l-198 -700h-108l-147 514l-147 -514h-108l-198 700h118l136 -506l146 506h106zM594 924l-115 -161h-77l85 161h107z" />
    <glyph glyph-name="wacute" unicode="&#x1e83;" horiz-adv-x="786" 
d="M340 500h106l112 -358l111 358h107l-165 -500h-107l-111 358l-111 -358h-107l-165 500h107l111 -358zM519 725l-115 -161h-77l85 161h107z" />
    <glyph glyph-name="Wdieresis" unicode="&#x1e84;" horiz-adv-x="936" 
d="M667 194l136 506h118l-198 -700h-108l-147 514l-147 -514h-108l-198 700h118l136 -506l146 506h106zM430 895v-105h-108v105h108zM614 895v-105h-108v105h108z" />
    <glyph glyph-name="wdieresis" unicode="&#x1e85;" horiz-adv-x="786" 
d="M446 500h-106l-112 -358l-111 358h-107l165 -500h107l111 358l111 -358h107l165 500h-107l-111 -358zM355 696v-105h-108v105h108zM539 696v-105h-108v105h108z" />
    <glyph glyph-name="Ygrave" unicode="&#x1ef2;" horiz-adv-x="574" 
d="M287 420l154 280h118l-218 -384v-316h-108v316l-218 384h118zM276 763l-115 161h107l85 -161h-77z" />
    <glyph glyph-name="ygrave" unicode="&#x1ef3;" horiz-adv-x="497" 
d="M176 -65l30 86l-196 479h110l134 -345l123 345h110l-219 -598q-25 -68 -59.5 -90.5t-97.5 -22.5h-39v92h34q26 0 42.5 11.5t27.5 42.5zM237 564l-115 161h107l85 -161h-77z" />
    <glyph glyph-name="thinspace" unicode="&#x2009;" horiz-adv-x="200" 
 />
    <glyph glyph-name="uni2010" unicode="&#x2010;" horiz-adv-x="412" 
d="M50 280v92h312v-92h-312z" />
    <glyph glyph-name="figuredash" unicode="&#x2012;" horiz-adv-x="600" 
d="M550 280h-500v92h500v-92z" />
    <glyph glyph-name="endash" unicode="&#x2013;" horiz-adv-x="500" 
d="M500 280h-500v92h500v-92z" />
    <glyph glyph-name="emdash" unicode="&#x2014;" horiz-adv-x="1000" 
d="M1000 280h-1000v92h1000v-92z" />
    <glyph glyph-name="afii00208" unicode="&#x2015;" horiz-adv-x="1000" 
d="M900 280h-800v92h800v-92z" />
    <glyph glyph-name="uni2016" unicode="&#x2016;" horiz-adv-x="432" 
d="M100 -130v879h82v-879h-82zM250 -130v879h82v-879h-82z" />
    <glyph glyph-name="underscoredbl" unicode="&#x2017;" horiz-adv-x="600" 
d="M50 -200v64h500v-64h-500zM50 -94v64h500v-64h-500z" />
    <glyph glyph-name="quoteleft" unicode="&#x2018;" horiz-adv-x="266" 
d="M74 546v115q0 49 29.5 79t88.5 36v-44q-37 -6 -52.5 -21.5t-15.5 -49.5h68v-115h-118z" />
    <glyph glyph-name="quoteright" unicode="&#x2019;" horiz-adv-x="266" 
d="M192 776v-115q0 -49 -29.5 -79t-88.5 -36v44q37 6 52.5 21.5t15.5 49.5h-68v115h118z" />
    <glyph glyph-name="quotesinglbase" unicode="&#x201a;" horiz-adv-x="266" 
d="M192 115v-115q0 -49 -29.5 -79t-88.5 -36v44q37 6 52.5 21.5t15.5 49.5h-68v115h118z" />
    <glyph glyph-name="quotereversed" unicode="&#x201b;" horiz-adv-x="266" 
d="M74 661v115h118v-115h-68q0 -34 15.5 -49.5t52.5 -21.5v-44q-59 6 -88.5 36t-29.5 79z" />
    <glyph glyph-name="quotedblleft" unicode="&#x201c;" horiz-adv-x="434" 
d="M74 546v115q0 49 29.5 79t88.5 36v-44q-37 -6 -52.5 -21.5t-15.5 -49.5h68v-115h-118zM242 546v115q0 49 29.5 79t88.5 36v-44q-37 -6 -52.5 -21.5t-15.5 -49.5h68v-115h-118z" />
    <glyph glyph-name="quotedblright" unicode="&#x201d;" horiz-adv-x="434" 
d="M192 776v-115q0 -49 -29.5 -79t-88.5 -36v44q37 6 52.5 21.5t15.5 49.5h-68v115h118zM360 776v-115q0 -49 -29.5 -79t-88.5 -36v44q37 6 52.5 21.5t15.5 49.5h-68v115h118z" />
    <glyph glyph-name="quotedblbase" unicode="&#x201e;" horiz-adv-x="434" 
d="M192 115v-115q0 -49 -29.5 -79t-88.5 -36v44q37 6 52.5 21.5t15.5 49.5h-68v115h118zM360 115v-115q0 -49 -29.5 -79t-88.5 -36v44q37 6 52.5 21.5t15.5 49.5h-68v115h118z" />
    <glyph glyph-name="uni201F" unicode="&#x201f;" horiz-adv-x="434" 
d="M74 661v115h118v-115h-68q0 -34 15.5 -49.5t52.5 -21.5v-44q-59 6 -88.5 36t-29.5 79zM242 661v115h118v-115h-68q0 -34 15.5 -49.5t52.5 -21.5v-44q-59 6 -88.5 36t-29.5 79z" />
    <glyph glyph-name="dagger" unicode="&#x2020;" horiz-adv-x="566" 
d="M496 580v-82h-166v-629h-94v629h-166v82h166v168h94v-168h166z" />
    <glyph glyph-name="daggerdbl" unicode="&#x2021;" horiz-adv-x="566" 
d="M496 119v-82h-166v-168h-94v168h-166v82h166v379h-166v82h166v168h94v-168h166v-82h-166v-379h166z" />
    <glyph glyph-name="bullet" unicode="&#x2022;" horiz-adv-x="362" 
d="M50 326q0 54 38.5 92.5t92.5 38.5t92.5 -38.5t38.5 -92.5t-38.5 -92.5t-92.5 -38.5t-92.5 38.5t-38.5 92.5z" />
    <glyph glyph-name="onedotenleader" unicode="&#x2024;" horiz-adv-x="266" 
d="M192 115v-115h-118v115h118z" />
    <glyph glyph-name="twodotenleader" unicode="&#x2025;" horiz-adv-x="532" 
d="M192 115v-115h-118v115h118zM458 115v-115h-118v115h118z" />
    <glyph glyph-name="ellipsis" unicode="&#x2026;" horiz-adv-x="798" 
d="M192 115v-115h-118v115h118zM458 115v-115h-118v115h118zM724 115v-115h-118v115h118z" />
    <glyph glyph-name="perthousand" unicode="&#x2030;" horiz-adv-x="1149" 
d="M223 0l287 700h87l-287 -700h-87zM762 219v-85q0 -62 -37 -104t-104 -42q-66 0 -103.5 42t-37.5 104v85q0 62 37.5 104t103.5 42q67 0 104 -42t37 -104zM566 208v-63q0 -81 54 -81t54 81v63q0 81 -54 81t-54 -81zM342 566v-85q0 -62 -37 -104t-104 -42q-66 0 -103.5 42
t-37.5 104v85q0 62 37.5 104t103.5 42q67 0 104 -42t37 -104zM146 555v-63q0 -81 54 -81t54 81v63q0 81 -54 81t-54 -81zM1089 219v-85q0 -62 -37 -104t-104 -42q-66 0 -103.5 42t-37.5 104v85q0 62 37.5 104t103.5 42q67 0 104 -42t37 -104zM893 208v-63q0 -81 54 -81
t54 81v63q0 81 -54 81t-54 -81z" />
    <glyph glyph-name="minute" unicode="&#x2032;" horiz-adv-x="219" 
d="M35 478l46 222h103l-72 -222h-77z" />
    <glyph glyph-name="second" unicode="&#x2033;" horiz-adv-x="377" 
d="M35 478l46 222h103l-72 -222h-77zM193 478l46 222h103l-72 -222h-77z" />
    <glyph glyph-name="guilsinglleft" unicode="&#x2039;" horiz-adv-x="298" 
d="M258 396l-134 -84l134 -84v-88l-218 143v58l218 143v-88z" />
    <glyph glyph-name="guilsinglright" unicode="&#x203a;" horiz-adv-x="298" 
d="M174 312l-134 84v88l218 -143v-58l-218 -143v88z" />
    <glyph glyph-name="exclamdbl" unicode="&#x203c;" horiz-adv-x="511" 
d="M120 212l-20 388v100h102v-100l-20 -388h-62zM100 0v110h102v-110h-102zM329 212l-20 388v100h102v-100l-20 -388h-62zM309 0v110h102v-110h-102z" />
    <glyph glyph-name="uni203E" unicode="&#x203e;" horiz-adv-x="380" 
d="M44 609v78h292v-78h-292z" />
    <glyph glyph-name="fraction" unicode="&#x2044;" horiz-adv-x="174" 
d="M302 700l-342 -700h-88l342 700h88z" />
    <glyph glyph-name="zerosuperior" unicode="&#x2070;" 
d="M242 396v145q0 89 -59 89t-59 -89v-145q0 -89 59 -89t59 89zM334 551v-165q0 -73 -40.5 -115t-110.5 -42t-110.5 42t-40.5 115v165q0 73 40.5 115t110.5 42t110.5 -42t40.5 -115z" />
    <glyph glyph-name="uni2071" unicode="&#x2071;" 
d="M137 237v322h92v-322h-92zM137 612v88h92v-88h-92z" />
    <glyph glyph-name="foursuperior" unicode="&#x2074;" 
d="M120 408h85v143zM343 408v-78h-48v-93h-90v93h-183v71l177 299h96v-292h48z" />
    <glyph glyph-name="fivesuperior" unicode="&#x2075;" 
d="M147 622v-86q22 14 52 14q61 0 100 -42.5t39 -118.5q0 -74 -40.5 -117t-109.5 -43q-70 0 -110.5 42.5t-40.5 110.5l92 7v-4q0 -78 59 -78q26 0 42 20.5t16 62.5t-15.5 63t-41.5 21q-34 0 -52 -28h-81v254h258v-78h-167z" />
    <glyph glyph-name="sixsuperior" unicode="&#x2076;" 
d="M244 380q0 33 -16.5 53t-44.5 20t-44.5 -20t-16.5 -53t16.5 -53t44.5 -20t44.5 20t16.5 53zM46 451l120 249h100l-84 -171q68 0 111 -43.5t43 -106.5t-42.5 -106.5t-109.5 -43.5q-68 0 -111 43.5t-43 107.5q0 38 16 71z" />
    <glyph glyph-name="sevensuperior" unicode="&#x2077;" 
d="M36 622v78h295v-61l-149 -402h-98l148 385h-196z" />
    <glyph glyph-name="eightsuperior" unicode="&#x2078;" 
d="M183 229q-69 0 -111.5 42t-42.5 109q0 78 59 114q-44 31 -44 89q0 55 38 90t101 35t101 -35t38 -90q0 -58 -44 -89q59 -36 59 -114q0 -67 -42.5 -109t-111.5 -42zM183 453q-27 0 -44.5 -20t-17.5 -54q0 -33 17.5 -53.5t44.5 -20.5t44.5 20.5t17.5 53.5q0 34 -17.5 54
t-44.5 20zM183 529q21 0 34 14t13 37t-13 37.5t-34 14.5t-34 -14.5t-13 -37.5t13 -37t34 -14z" />
    <glyph glyph-name="ninesuperior" unicode="&#x2079;" 
d="M122 557q0 -33 16.5 -53t44.5 -20t44.5 20t16.5 53t-16.5 53t-44.5 20t-44.5 -20t-16.5 -53zM320 486l-120 -249h-100l84 171q-68 0 -111 43.5t-43 106.5t42.5 106.5t109.5 43.5q68 0 111 -43.5t43 -107.5q0 -38 -16 -71z" />
    <glyph glyph-name="uni207A" unicode="&#x207a;" 
d="M141 310v121h-122v76h122v121h84v-121h122v-76h-122v-121h-84z" />
    <glyph glyph-name="uni207B" unicode="&#x207b;" 
d="M347 431h-328v76h328v-76z" />
    <glyph glyph-name="uni207C" unicode="&#x207c;" 
d="M347 356h-328v76h328v-76zM347 506h-328v76h328v-76z" />
    <glyph glyph-name="uni207D" unicode="&#x207d;" 
d="M290 255l-26 -83q-69 23 -109 85.5t-40 147.5v127q0 86 40 148t109 85l26 -83q-38 -16 -61 -59.5t-23 -106.5v-94q0 -64 23 -107.5t61 -59.5z" />
    <glyph glyph-name="uni207E" unicode="&#x207e;" 
d="M101 172l-26 83q38 16 61 59.5t23 107.5v94q0 63 -23 106.5t-61 59.5l26 83q69 -23 109 -85t40 -148v-127q0 -85 -40 -147.5t-109 -85.5z" />
    <glyph glyph-name="uni207F" unicode="&#x207f;" 
d="M37 237v351h90v-42q30 51 92 51q52 0 81 -34.5t29 -96.5v-229h-90v216q0 62 -50 62q-42 0 -62 -44v-234h-90z" />
    <glyph glyph-name="zeroinferior" unicode="&#x2080;" 
d="M242 33v145q0 89 -59 89t-59 -89v-145q0 -89 59 -89t59 89zM334 188v-165q0 -73 -40.5 -115t-110.5 -42t-110.5 42t-40.5 115v165q0 73 40.5 115t110.5 42t110.5 -42t40.5 -115z" />
    <glyph glyph-name="oneinferior" unicode="&#x2081;" 
d="M334 -126h-268v78h88v290l-88 -37v83l105 49h75v-385h88v-78z" />
    <glyph glyph-name="twoinferior" unicode="&#x2082;" 
d="M39 186v16q0 62 39.5 102.5t108.5 40.5q65 0 106 -40t41 -103q0 -58 -49 -112l-124 -138h173v-78h-295v65l180 204q23 26 23 58q0 31 -15 48.5t-40 17.5q-26 0 -41 -17t-15 -49v-22z" />
    <glyph glyph-name="threeinferior" unicode="&#x2083;" 
d="M149 86l-43 48l98 125h-157v78h271v-68l-90 -112q50 -7 79 -46t29 -100q0 -62 -42.5 -103.5t-107.5 -41.5q-67 0 -109 41.5t-42 103.5v13l92 7v-19q0 -33 16 -50.5t43 -17.5q25 0 41.5 17.5t16.5 50.5q0 83 -59 83q-15 0 -36 -9z" />
    <glyph glyph-name="fourinferior" unicode="&#x2084;" 
d="M120 45h85v143zM343 45v-78h-48v-93h-90v93h-183v71l177 299h96v-292h48z" />
    <glyph glyph-name="fiveinferior" unicode="&#x2085;" 
d="M147 259v-86q22 14 52 14q61 0 100 -42.5t39 -118.5q0 -74 -40.5 -117t-109.5 -43q-70 0 -110.5 42.5t-40.5 110.5l92 7v-4q0 -78 59 -78q26 0 42 20.5t16 62.5t-15.5 63t-41.5 21q-34 0 -52 -28h-81v254h258v-78h-167z" />
    <glyph glyph-name="sixinferior" unicode="&#x2086;" 
d="M244 17q0 33 -16.5 53t-44.5 20t-44.5 -20t-16.5 -53t16.5 -53t44.5 -20t44.5 20t16.5 53zM46 88l120 249h100l-84 -171q68 0 111 -43.5t43 -106.5t-42.5 -106.5t-109.5 -43.5q-68 0 -111 43.5t-43 107.5q0 38 16 71z" />
    <glyph glyph-name="seveninferior" unicode="&#x2087;" 
d="M36 259v78h295v-61l-149 -402h-98l148 385h-196z" />
    <glyph glyph-name="eightinferior" unicode="&#x2088;" 
d="M183 -134q-69 0 -111.5 42t-42.5 109q0 78 59 114q-44 31 -44 89q0 55 38 90t101 35t101 -35t38 -90q0 -58 -44 -89q59 -36 59 -114q0 -67 -42.5 -109t-111.5 -42zM183 90q-27 0 -44.5 -20t-17.5 -54q0 -33 17.5 -53.5t44.5 -20.5t44.5 20.5t17.5 53.5q0 34 -17.5 54
t-44.5 20zM183 166q21 0 34 14t13 37t-13 37.5t-34 14.5t-34 -14.5t-13 -37.5t13 -37t34 -14z" />
    <glyph glyph-name="nineinferior" unicode="&#x2089;" 
d="M122 194q0 -33 16.5 -53t44.5 -20t44.5 20t16.5 53t-16.5 53t-44.5 20t-44.5 -20t-16.5 -53zM320 123l-120 -249h-100l84 171q-68 0 -111 43.5t-43 106.5t42.5 106.5t109.5 43.5q68 0 111 -43.5t43 -107.5q0 -38 -16 -71z" />
    <glyph glyph-name="uni208A" unicode="&#x208a;" 
d="M141 -53v121h-122v76h122v121h84v-121h122v-76h-122v-121h-84z" />
    <glyph glyph-name="uni208B" unicode="&#x208b;" 
d="M347 68h-328v76h328v-76z" />
    <glyph glyph-name="uni208C" unicode="&#x208c;" 
d="M347 -7h-328v76h328v-76zM347 143h-328v76h328v-76z" />
    <glyph glyph-name="uni208D" unicode="&#x208d;" 
d="M290 -108l-26 -83q-69 23 -109 85.5t-40 147.5v127q0 86 40 148t109 85l26 -83q-38 -16 -61 -59.5t-23 -106.5v-94q0 -64 23 -107.5t61 -59.5z" />
    <glyph glyph-name="uni208E" unicode="&#x208e;" 
d="M101 -191l-26 83q38 16 61 59.5t23 107.5v94q0 63 -23 106.5t-61 59.5l26 83q69 -23 109 -85t40 -148v-127q0 -85 -40 -147.5t-109 -85.5z" />
    <glyph glyph-name="uni2090" unicode="&#x2090;" 
d="M34 -30v4q0 49 39.5 77.5t112.5 28.5h58v20q0 28 -17 43.5t-43 15.5q-41 0 -64 -43l-77 28q22 44 61 67.5t87 23.5q63 0 102 -36t39 -94v-230h-88v31q-30 -40 -93 -40q-50 0 -83.5 29t-33.5 75zM177 -58q48 0 67 29v42h-65q-57 0 -57 -35q0 -36 55 -36z" />
    <glyph glyph-name="uni2091" unicode="&#x2091;" 
d="M336 19h-218q1 -40 19.5 -58.5t45.5 -18.5q47 0 63 45l85 -12q-13 -50 -53.5 -79.5t-94.5 -29.5q-66 0 -109.5 43t-43.5 102v79q0 59 44 102t109 43t109 -43t44 -102v-71zM183 159q-61 0 -65 -74h130q-2 39 -20.5 56.5t-44.5 17.5z" />
    <glyph glyph-name="uni2092" unicode="&#x2092;" 
d="M118 79v-57q0 -40 18.5 -60t46.5 -20t46.5 20t18.5 60v57q0 40 -18.5 60t-46.5 20t-46.5 -20t-18.5 -60zM30 15v71q0 64 45 106.5t108 42.5q64 0 108.5 -42.5t44.5 -106.5v-71q0 -64 -44.5 -106.5t-108.5 -42.5t-108.5 42.5t-44.5 106.5z" />
    <glyph glyph-name="uni2093" unicode="&#x2093;" 
d="M23 -125l114 177l-104 165h93l59 -92l59 92h93l-105 -165l115 -177h-97l-65 103l-65 -103h-97z" />
    <glyph glyph-name="uni2094" unicode="&#x2094;" 
d="M30 82h218q-1 40 -19.5 58.5t-45.5 18.5q-47 0 -63 -45l-85 12q13 50 53.5 79.5t94.5 29.5q66 0 109.5 -43t43.5 -102v-79q0 -59 -44 -102t-109 -43t-109 43t-44 102v71zM183 -58q26 0 44.5 17.5t20.5 56.5h-130q4 -74 65 -74z" />
    <glyph glyph-name="uni20A0" unicode="&#x20a0;" horiz-adv-x="722" 
d="M455 571l-98 -18q-25 71 -101 71q-51 0 -84.5 -35.5t-33.5 -103.5v-54q0 -68 33.5 -103.5t84.5 -35.5q77 0 106 48v150h330v-93h-226v-101h185v-93h-185v-110h226v-93h-330v238q-38 -34 -116 -34q-86 0 -146 61.5t-60 145.5v94q0 85 61 146t155 61q73 0 125 -39t74 -102z
" />
    <glyph glyph-name="colonmonetary" unicode="&#x20a1;" horiz-adv-x="591" 
d="M319 -94v83q-6 -1 -17 -1q-17 0 -25 1v-83h-57v94q-79 25 -124.5 95.5t-45.5 168.5v172q0 97 45.5 167.5t124.5 96.5v94h57v-83q8 1 25 1q11 0 17 -1v83h57v-92q71 -20 117 -76t58 -135l-107 -18q-16 86 -68 121v-489q51 35 68 122l107 -18q-12 -80 -58.5 -136
t-116.5 -75v-92h-57zM158 282q0 -122 62 -170v476q-62 -50 -62 -170v-136zM302 85q11 0 17 1v528q-6 1 -17 1q-9 0 -25 -2v-526q16 -2 25 -2z" />
    <glyph glyph-name="uni20A2" unicode="&#x20a2;" horiz-adv-x="591" 
d="M465 396v-86q-19 6 -45 6q-50 0 -74 -40v-185q77 25 98 136l107 -18q-14 -100 -81.5 -160.5t-167.5 -60.5q-113 0 -182.5 77t-69.5 199v172q0 122 69.5 199t182.5 77q100 0 167.5 -60.5t81.5 -160.5l-107 -18q-13 70 -49.5 106t-92.5 36q-67 0 -105.5 -51.5t-38.5 -145.5
v-136q0 -150 91 -187v299h97v-34q32 42 80 42q26 0 39 -6z" />
    <glyph glyph-name="franc" unicode="&#x20a3;" horiz-adv-x="525" 
d="M10 372v67h60v261h430v-97h-322v-164h202v-67h-202v-54h202v-67h-202v-251h-108v251h-60v67h60v54h-60z" />
    <glyph glyph-name="lira" unicode="&#x20a4;" horiz-adv-x="586" 
d="M45 221v67h60v54h-60v67h60v73q0 109 57.5 169.5t156.5 60.5q187 0 227 -201l-107 -18q-24 122 -119 122q-107 0 -107 -151v-55h193v-67h-193v-54h193v-67h-194q-3 -85 -39 -124h373v-97h-496v89q52 51 55 132h-60z" />
    <glyph glyph-name="uni20A6" unicode="&#x20a6;" horiz-adv-x="650" 
d="M10 372v67h60v261h110l147 -261h145v261h108v-261h60v-67h-60v-44h60v-67h-60v-261h-110l-147 261h-145v-261h-108v261h-60v67h60v44h-60zM364 372l25 -44h83v44h-108zM178 372v-44h107l-25 44h-82zM178 519v-80h45zM427 261l45 -80v80h-45z" />
    <glyph glyph-name="peseta" unicode="&#x20a7;" horiz-adv-x="1090" 
d="M860 0h-178q-161 0 -161 152v256h-60q-22 -66 -78 -101t-123 -35h-82v-272h-108v700h190q82 0 144.5 -52.5t67.5 -147.5h49v142h102v-142h114v-30q42 42 119 42q142 0 180 -145l-104 -18q-15 71 -75 71q-57 0 -57 -52q0 -45 68 -64l36 -10q71 -20 106 -53t35 -90
q0 -151 -185 -151zM698 368q0 23 4 40h-79v-246q0 -70 60 -70h174q86 0 86 59q0 25 -16 39.5t-51 23.5l-34 9q-75 20 -109.5 54t-34.5 91zM178 369h67q53 0 86.5 30.5t33.5 86.5t-33.5 86.5t-86.5 30.5h-67v-234z" />
    <glyph glyph-name="uni20A8" unicode="&#x20a8;" horiz-adv-x="980" 
d="M436 0l-160 282h-98v-282h-108v700h230q89 0 156 -55t67 -154q0 -74 -38.5 -123.5t-99.5 -71.5l169 -296h-118zM935 142q0 61 -35.5 95.5t-119.5 55.5l-37 9q-41 10 -57 25.5t-16 38.5t18 38.5t48 15.5q32 0 55.5 -19.5t30.5 -51.5l104 18q-19 68 -69.5 106.5
t-120.5 38.5q-76 0 -122 -41.5t-46 -105.5q0 -59 39 -94t120 -53l35 -8q71 -16 71 -68q0 -29 -20.5 -45.5t-55.5 -16.5q-73 0 -99 84l-104 -18q20 -76 74 -117t132 -41q81 0 128 42.5t47 111.5zM178 379h107q58 0 94 29.5t36 82.5t-36 82.5t-94 29.5h-107v-224z" />
    <glyph glyph-name="uni20A9" unicode="&#x20a9;" horiz-adv-x="936" 
d="M20 265v67h99l-13 44h-86v67h67l-72 257h118l67 -257h142l73 257h106l72 -257h142l68 257h118l-73 -257h68v-67h-87l-12 -44h99v-67h-118l-75 -265h-108l-74 265h-146l-74 -265h-108l-75 265h-118zM427 376l-13 -44h108l-13 44h-82zM218 376l11 -44h82l12 44h-105z
M612 376l13 -44h81l11 44h-105zM468 524l-23 -81h45zM644 265l23 -81l21 81h-44zM247 265l22 -81l23 81h-45z" />
    <glyph glyph-name="afii57636" unicode="&#x20aa;" horiz-adv-x="844" 
d="M70 0v700h278q103 0 165 -60.5t62 -167.5v-210h-108v186q0 155 -129 155h-160v-603h-108zM774 700v-700h-278q-103 0 -165 60.5t-62 167.5v210h108v-186q0 -155 129 -155h160v603h108z" />
    <glyph glyph-name="dong" unicode="&#x20ab;" horiz-adv-x="552" 
d="M45 195v98q0 88 50 147.5t137 59.5q42 0 78 -18t54 -46v129h-128v79h128v56h108v-56h60v-79h-60v-565h-108v52q-18 -28 -54 -46t-78 -18q-87 0 -137 59.5t-50 147.5zM266 404q-113 0 -113 -135v-50q0 -135 113 -135q65 0 98 63v194q-33 63 -98 63zM134 -152v69h322v-69
h-322z" />
    <glyph glyph-name="Euro" unicode="&#x20ac;" horiz-adv-x="611" 
d="M20 376v67h50q2 119 71 194t181 75q100 0 167.5 -60.5t81.5 -160.5l-107 -18q-13 70 -49.5 106t-92.5 36q-63 0 -100.5 -45t-42.5 -127h166l-10 -67h-157v-54h148l-10 -67h-137q5 -81 42.5 -125.5t100.5 -44.5q56 0 92.5 36t49.5 106l107 -18q-14 -100 -81.5 -160.5
t-167.5 -60.5q-111 0 -180.5 74.5t-71.5 192.5h-50v67h50v54h-50z" />
    <glyph glyph-name="afii61248" unicode="&#x2105;" horiz-adv-x="984" 
d="M704 700l-342 -700h-88l342 700h88zM45 434v95q0 73 52.5 126t131.5 53q66 0 112.5 -38.5t62.5 -98.5l-89 -15q-9 35 -32 54.5t-54 19.5q-40 0 -66.5 -31t-26.5 -87v-61q0 -56 26.5 -87t66.5 -31q31 0 54 19.5t32 54.5l89 -15q-16 -60 -62.5 -98.5t-112.5 -38.5
q-79 0 -131.5 53t-52.5 126zM571 266v-95q0 -73 52.5 -126t131.5 -53t131.5 53t52.5 126v95q0 73 -52.5 126t-131.5 53t-131.5 -53t-52.5 -126zM662 186v65q0 56 26 86t67 30t67 -30t26 -86v-65q0 -56 -26 -86t-67 -30t-67 30t-26 86z" />
    <glyph glyph-name="uni2109" unicode="&#x2109;" horiz-adv-x="819" 
d="M306 573q0 -60 -36 -97.5t-97 -37.5t-97 37.5t-36 97.5t36 97.5t97 37.5t97 -37.5t36 -97.5zM223 573q0 26 -13.5 41.5t-36.5 15.5t-36.5 -15.5t-13.5 -41.5t13.5 -41.5t36.5 -15.5t36.5 15.5t13.5 41.5zM364 0v700h430v-97h-322v-205h291v-97h-291v-301h-108z" />
    <glyph glyph-name="afii61289" unicode="&#x2113;" horiz-adv-x="496" 
d="M357 143l99 -17q-54 -138 -179 -138q-72 0 -116.5 40.5t-54.5 116.5q-25 -8 -65 -17l-21 90q45 10 84 24v294q0 80 44.5 128t120.5 48q74 0 119.5 -46t45.5 -129v-19q0 -110 -58 -195.5t-170 -139.5q3 -105 74 -105q27 0 48 17.5t29 47.5zM206 525v-232q126 83 126 225
v13q0 91 -65 91q-61 0 -61 -97z" />
    <glyph glyph-name="afii61352" unicode="&#x2116;" horiz-adv-x="904" 
d="M378 0l-204 459v-459h-104v700h96l202 -456v456h104v-700h-94zM531 0v90h324v-90h-324zM693 123q72 0 119 45t47 116v86q0 71 -47 116t-119 45t-119 -45t-47 -116v-86q0 -71 47 -116t119 -45zM693 220q-61 0 -61 80v54q0 80 61 80t61 -80v-54q0 -80 -61 -80z" />
    <glyph glyph-name="uni2117" unicode="&#x2117;" horiz-adv-x="754" 
d="M377 -12q-149 0 -240.5 92t-91.5 250v40q0 158 91.5 250t240.5 92t240.5 -92t91.5 -250v-40q0 -158 -91.5 -250t-240.5 -92zM377 660q-129 0 -202.5 -79.5t-73.5 -218.5v-24q0 -139 73.5 -218.5t202.5 -79.5t202.5 79.5t73.5 218.5v24q0 139 -73.5 218.5t-202.5 79.5z
M401 297h-81v-156h-85v418h166q54 0 95.5 -35t41.5 -97t-41.5 -96t-95.5 -34zM319 373h66q68 0 68 56q0 57 -68 57h-66v-113z" />
    <glyph glyph-name="uni2120" unicode="&#x2120;" horiz-adv-x="647" 
d="M272 466q0 -46 -32.5 -75.5t-89.5 -29.5q-108 0 -138 103l84 14q13 -47 54 -47q18 0 29 9t11 24q0 26 -43 35l-23 5q-100 21 -100 101q0 42 30.5 71.5t85.5 29.5q49 0 82.5 -25.5t45.5 -70.5l-83 -16q-12 42 -45 42q-16 0 -25 -9t-9 -21q0 -26 44 -35l24 -5
q50 -11 74 -34.5t24 -65.5zM431 445l-49 96v-175h-82v334h70l88 -166l90 166h69v-334h-82v174l-48 -95h-56z" />
    <glyph glyph-name="uni2121" unicode="&#x2121;" horiz-adv-x="972" 
d="M524 -12q-84 0 -133.5 51.5t-49.5 135.5v150q0 84 49.5 135.5t133.5 51.5t133.5 -51.5t49.5 -135.5v-113h-264v-27q0 -105 81 -105q58 0 73 65l104 -17q-19 -66 -63.5 -103t-113.5 -37zM15 603v97h392v-97h-142v-603h-108v603h-142zM867 712v-560q0 -60 60 -60h20v-92
h-31q-151 0 -151 142v570h102zM605 294v21q0 105 -81 105t-81 -105v-21h162z" />
    <glyph glyph-name="trademark" unicode="&#x2122;" horiz-adv-x="628" 
d="M412 445l-49 96v-175h-82v334h70l88 -166l90 166h69v-334h-82v174l-48 -95h-56zM15 628v72h242v-72h-79v-262h-84v262h-79z" />
    <glyph glyph-name="Omega" unicode="&#x2126;" horiz-adv-x="614" 
d="M307 712q113 0 182.5 -77t69.5 -199v-162q0 -123 -79 -177h73v-97h-211v87q109 40 109 195v136q0 94 -38.5 145.5t-105.5 51.5t-105.5 -51.5t-38.5 -145.5v-136q0 -155 109 -195v-87h-211v97h73q-79 54 -79 177v162q0 122 69.5 199t182.5 77z" />
    <glyph glyph-name="estimated" unicode="&#x212e;" horiz-adv-x="738" 
d="M375 36q69 0 127.5 29t91.5 81l56 -11q-44 -71 -116 -109t-157 -38q-148 0 -240 101.5t-92 260.5q0 154 88.5 258t241.5 104q147 0 232.5 -105t85.5 -263v-21h-499v-213q63 -74 181 -74zM372 663q-107 0 -178 -69v-222h355v225q-68 66 -177 66z" />
    <glyph glyph-name="onethird" unicode="&#x2153;" horiz-adv-x="930" 
d="M670 260l43 -48q21 9 36 9q59 0 59 -83q0 -33 -16.5 -50.5t-41.5 -17.5q-27 0 -43 17.5t-16 50.5v19l-92 -7v-13q0 -62 42 -103.5t109 -41.5q65 0 107.5 41.5t42.5 103.5q0 61 -29 100t-79 46l90 112v68h-271v-78h157zM682 700l-342 -700h-88l342 700h88zM334 237h-268
v78h88v290l-88 -37v83l105 49h75v-385h88v-78z" />
    <glyph glyph-name="twothirds" unicode="&#x2154;" horiz-adv-x="930" 
d="M670 260l43 -48q21 9 36 9q59 0 59 -83q0 -33 -16.5 -50.5t-41.5 -17.5q-27 0 -43 17.5t-16 50.5v19l-92 -7v-13q0 -62 42 -103.5t109 -41.5q65 0 107.5 41.5t42.5 103.5q0 61 -29 100t-79 46l90 112v68h-271v-78h157zM39 549v16q0 62 39.5 102.5t108.5 40.5
q65 0 106 -40t41 -103q0 -58 -49 -112l-124 -138h173v-78h-295v65l180 204q23 26 23 58q0 31 -15 48.5t-40 17.5q-26 0 -41 -17t-15 -49v-22zM682 700l-342 -700h-88l342 700h88z" />
    <glyph glyph-name="onefifth" unicode="&#x2155;" horiz-adv-x="930" 
d="M711 299v86h167v78h-258v-254h81q18 28 52 28q26 0 41.5 -21t15.5 -63t-16 -62.5t-42 -20.5q-59 0 -59 78v4l-92 -7q0 -68 40.5 -110.5t110.5 -42.5q69 0 109.5 43t40.5 117q0 76 -39 118.5t-100 42.5q-30 0 -52 -14zM682 700l-342 -700h-88l342 700h88zM334 237h-268v78
h88v290l-88 -37v83l105 49h75v-385h88v-78z" />
    <glyph glyph-name="twofifths" unicode="&#x2156;" horiz-adv-x="930" 
d="M682 700l-342 -700h-88l342 700h88zM39 549v16q0 62 39.5 102.5t108.5 40.5q65 0 106 -40t41 -103q0 -58 -49 -112l-124 -138h173v-78h-295v65l180 204q23 26 23 58q0 31 -15 48.5t-40 17.5q-26 0 -41 -17t-15 -49v-22zM711 299v86h167v78h-258v-254h81q18 28 52 28
q26 0 41.5 -21t15.5 -63t-16 -62.5t-42 -20.5q-59 0 -59 78v4l-92 -7q0 -68 40.5 -110.5t110.5 -42.5q69 0 109.5 43t40.5 117q0 76 -39 118.5t-100 42.5q-30 0 -52 -14z" />
    <glyph glyph-name="threefifths" unicode="&#x2157;" horiz-adv-x="930" 
d="M682 700l-342 -700h-88l342 700h88zM711 299v86h167v78h-258v-254h81q18 28 52 28q26 0 41.5 -21t15.5 -63t-16 -62.5t-42 -20.5q-59 0 -59 78v4l-92 -7q0 -68 40.5 -110.5t110.5 -42.5q69 0 109.5 43t40.5 117q0 76 -39 118.5t-100 42.5q-30 0 -52 -14zM106 497l43 -48
q21 9 36 9q59 0 59 -83q0 -33 -16.5 -50.5t-41.5 -17.5q-27 0 -43 17.5t-16 50.5v19l-92 -7v-13q0 -62 42 -103.5t109 -41.5q65 0 107.5 41.5t42.5 103.5q0 61 -29 100t-79 46l90 112v68h-271v-78h157z" />
    <glyph glyph-name="fourfifths" unicode="&#x2158;" horiz-adv-x="930" 
d="M682 700l-342 -700h-88l342 700h88zM711 299v86h167v78h-258v-254h81q18 28 52 28q26 0 41.5 -21t15.5 -63t-16 -62.5t-42 -20.5q-59 0 -59 78v4l-92 -7q0 -68 40.5 -110.5t110.5 -42.5q69 0 109.5 43t40.5 117q0 76 -39 118.5t-100 42.5q-30 0 -52 -14zM205 408h-85
l85 143v-143zM343 330v78h-48v292h-96l-177 -299v-71h183v-93h90v93h48z" />
    <glyph glyph-name="onesixth" unicode="&#x2159;" horiz-adv-x="930" 
d="M808 143q0 -33 -16.5 -53t-44.5 -20t-44.5 20t-16.5 53t16.5 53t44.5 20t44.5 -20t16.5 -53zM730 463l-120 -249q-16 -33 -16 -71q0 -64 43 -107.5t111 -43.5q67 0 109.5 43.5t42.5 106.5t-43 106.5t-111 43.5l84 171h-100zM682 700l-342 -700h-88l342 700h88zM334 237
h-268v78h88v290l-88 -37v83l105 49h75v-385h88v-78z" />
    <glyph glyph-name="fivesixths" unicode="&#x215a;" horiz-adv-x="930" 
d="M682 700l-342 -700h-88l342 700h88zM808 143q0 -33 -16.5 -53t-44.5 -20t-44.5 20t-16.5 53t16.5 53t44.5 20t44.5 -20t16.5 -53zM730 463l-120 -249q-16 -33 -16 -71q0 -64 43 -107.5t111 -43.5q67 0 109.5 43.5t42.5 106.5t-43 106.5t-111 43.5l84 171h-100zM147 536
v86h167v78h-258v-254h81q18 28 52 28q26 0 41.5 -21t15.5 -63t-16 -62.5t-42 -20.5q-59 0 -59 78v4l-92 -7q0 -68 40.5 -110.5t110.5 -42.5q69 0 109.5 43t40.5 117q0 76 -39 118.5t-100 42.5q-30 0 -52 -14z" />
    <glyph glyph-name="oneeighth" unicode="&#x215b;" horiz-adv-x="930" 
d="M682 700l-342 -700h-88l342 700h88zM747 -8q69 0 111.5 42t42.5 109q0 78 -59 114q44 31 44 89q0 55 -38 90t-101 35t-101 -35t-38 -90q0 -58 44 -89q-59 -36 -59 -114q0 -67 42.5 -109t111.5 -42zM747 216q27 0 44.5 -20t17.5 -54q0 -33 -17.5 -53.5t-44.5 -20.5
t-44.5 20.5t-17.5 53.5q0 34 17.5 54t44.5 20zM747 292q-21 0 -34 14t-13 37t13 37.5t34 14.5t34 -14.5t13 -37.5t-13 -37t-34 -14zM334 237h-268v78h88v290l-88 -37v83l105 49h75v-385h88v-78z" />
    <glyph glyph-name="threeeighths" unicode="&#x215c;" horiz-adv-x="930" 
d="M747 -8q69 0 111.5 42t42.5 109q0 78 -59 114q44 31 44 89q0 55 -38 90t-101 35t-101 -35t-38 -90q0 -58 44 -89q-59 -36 -59 -114q0 -67 42.5 -109t111.5 -42zM747 216q27 0 44.5 -20t17.5 -54q0 -33 -17.5 -53.5t-44.5 -20.5t-44.5 20.5t-17.5 53.5q0 34 17.5 54
t44.5 20zM747 292q-21 0 -34 14t-13 37t13 37.5t34 14.5t34 -14.5t13 -37.5t-13 -37t-34 -14zM682 700l-342 -700h-88l342 700h88zM106 497l43 -48q21 9 36 9q59 0 59 -83q0 -33 -16.5 -50.5t-41.5 -17.5q-27 0 -43 17.5t-16 50.5v19l-92 -7v-13q0 -62 42 -103.5t109 -41.5
q65 0 107.5 41.5t42.5 103.5q0 61 -29 100t-79 46l90 112v68h-271v-78h157z" />
    <glyph glyph-name="fiveeighths" unicode="&#x215d;" horiz-adv-x="930" 
d="M682 700l-342 -700h-88l342 700h88zM747 -8q69 0 111.5 42t42.5 109q0 78 -59 114q44 31 44 89q0 55 -38 90t-101 35t-101 -35t-38 -90q0 -58 44 -89q-59 -36 -59 -114q0 -67 42.5 -109t111.5 -42zM747 216q27 0 44.5 -20t17.5 -54q0 -33 -17.5 -53.5t-44.5 -20.5
t-44.5 20.5t-17.5 53.5q0 34 17.5 54t44.5 20zM747 292q-21 0 -34 14t-13 37t13 37.5t34 14.5t34 -14.5t13 -37.5t-13 -37t-34 -14zM147 536v86h167v78h-258v-254h81q18 28 52 28q26 0 41.5 -21t15.5 -63t-16 -62.5t-42 -20.5q-59 0 -59 78v4l-92 -7q0 -68 40.5 -110.5
t110.5 -42.5q69 0 109.5 43t40.5 117q0 76 -39 118.5t-100 42.5q-30 0 -52 -14z" />
    <glyph glyph-name="seveneighths" unicode="&#x215e;" horiz-adv-x="930" 
d="M682 700l-342 -700h-88l342 700h88zM747 -8q69 0 111.5 42t42.5 109q0 78 -59 114q44 31 44 89q0 55 -38 90t-101 35t-101 -35t-38 -90q0 -58 44 -89q-59 -36 -59 -114q0 -67 42.5 -109t111.5 -42zM747 216q27 0 44.5 -20t17.5 -54q0 -33 -17.5 -53.5t-44.5 -20.5
t-44.5 20.5t-17.5 53.5q0 34 17.5 54t44.5 20zM747 292q-21 0 -34 14t-13 37t13 37.5t34 14.5t34 -14.5t13 -37.5t-13 -37t-34 -14zM36 622v78h295v-61l-149 -402h-98l148 385h-196z" />
    <glyph glyph-name="uni215F" unicode="&#x215f;" horiz-adv-x="930" 
d="M682 700l-342 -700h-88l342 700h88zM334 237h-268v78h88v290l-88 -37v83l105 49h75v-385h88v-78z" />
    <glyph glyph-name="arrowleft" unicode="&#x2190;" horiz-adv-x="860" 
d="M824 375v-86h-565v-120l-223 163l223 163v-120h565z" />
    <glyph glyph-name="arrowup" unicode="&#x2191;" horiz-adv-x="860" 
d="M473 -38h-86v565h-120l163 223l163 -223h-120v-565z" />
    <glyph glyph-name="arrowright" unicode="&#x2192;" horiz-adv-x="860" 
d="M36 289v86h565v120l223 -163l-223 -163v120h-565z" />
    <glyph glyph-name="arrowdown" unicode="&#x2193;" horiz-adv-x="860" 
d="M387 750h86v-565h120l-163 -223l-163 223h120v565z" />
    <glyph glyph-name="arrowboth" unicode="&#x2194;" horiz-adv-x="860" 
d="M259 495v-120h342v120l223 -163l-223 -163v120h-342v-120l-223 163z" />
    <glyph glyph-name="arrowupdn" unicode="&#x2195;" horiz-adv-x="860" 
d="M267 185h120v342h-120l163 223l163 -223h-120v-342h120l-163 -223z" />
    <glyph glyph-name="arrowupdnbse" unicode="&#x21a8;" horiz-adv-x="860" 
d="M267 185h120v342h-120l163 223l163 -223h-120v-342h120l-153 -209h183v-64h-386v64h183z" />
    <glyph glyph-name="partialdiff" unicode="&#x2202;" horiz-adv-x="590" 
d="M530 466v-256q0 -98 -63.5 -160t-176.5 -62t-176.5 62t-63.5 160v22q0 98 63.5 160t176.5 62q84 0 132 -43v37q0 167 -125 167q-44 0 -77 -26.5t-47 -75.5l-107 18q24 83 85.5 132t148.5 49q104 0 167 -67t63 -179zM422 207v109q-20 19 -57.5 30t-74.5 11q-62 0 -97 -35
t-35 -87v-28q0 -52 35 -87t97 -35t97 35t35 87z" />
    <glyph glyph-name="Delta" unicode="&#x2206;" horiz-adv-x="588" 
d="M323 700l260 -700h-578l260 700h58zM294 479l-137 -382h274z" />
    <glyph glyph-name="product" unicode="&#x220f;" horiz-adv-x="620" 
d="M442 -111v754h-264v-754h-108v851h480v-851h-108z" />
    <glyph glyph-name="summation" unicode="&#x2211;" horiz-adv-x="556" 
d="M40 -19l177 339l-177 324v96h486v-97h-366l169 -304v-40l-168 -313h365v-97h-486v92z" />
    <glyph glyph-name="minus" unicode="&#x2212;" horiz-adv-x="532" 
d="M50 285v82h432v-82h-432z" />
    <glyph glyph-name="uni2215" unicode="&#x2215;" horiz-adv-x="174" 
d="M302 700l-342 -700h-88l342 700h88z" />
    <glyph glyph-name="uni2219" unicode="&#x2219;" horiz-adv-x="266" 
d="M192 384v-115h-118v115h118z" />
    <glyph glyph-name="radical" unicode="&#x221a;" horiz-adv-x="509" 
d="M301 0h-82l-163 283h-51v92h114l124 -215l160 610h101z" />
    <glyph glyph-name="infinity" unicode="&#x221e;" horiz-adv-x="740" 
d="M318 331q-33 40 -57.5 54.5t-52.5 14.5q-32 0 -51.5 -18.5t-19.5 -50.5t19.5 -50.5t51.5 -18.5q28 0 52.5 14.5t57.5 54.5zM422 331q33 -40 57.5 -54.5t52.5 -14.5q32 0 51.5 18.5t19.5 50.5t-19.5 50.5t-51.5 18.5q-28 0 -52.5 -14.5t-57.5 -54.5zM370 270
q-77 -86 -167 -86q-73 0 -115.5 39.5t-42.5 107.5t42.5 107.5t115.5 39.5q90 0 167 -86q77 86 167 86q73 0 115.5 -39.5t42.5 -107.5t-42.5 -107.5t-115.5 -39.5q-90 0 -167 86z" />
    <glyph glyph-name="orthogonal" unicode="&#x221f;" horiz-adv-x="575" 
d="M555 97v-97h-485v575h108v-478h377z" />
    <glyph glyph-name="intersection" unicode="&#x2229;" horiz-adv-x="644" 
d="M322 617q108 0 180 -72.5t72 -192.5v-352h-108v321q0 198 -144 198t-144 -198v-321h-108v352q0 120 72 192.5t180 72.5z" />
    <glyph glyph-name="integral" unicode="&#x222b;" horiz-adv-x="382" 
d="M242 558v-570q0 -116 -40.5 -162t-155.5 -46h-26v92h35q51 0 68 22t17 78v570q0 116 40.5 162t155.5 46h26v-92h-35q-51 0 -68 -22t-17 -78z" />
    <glyph glyph-name="approxequal" unicode="&#x2248;" horiz-adv-x="532" 
d="M355 341q-34 0 -62.5 14t-44 31t-34.5 31t-36 14q-55 0 -59 -86l-92 7q2 80 43 121t106 41q34 0 62.5 -14t44 -31t34.5 -31t36 -14q55 0 59 86l92 -7q-2 -80 -43 -121t-106 -41zM355 138q-34 0 -62.5 14t-44 31t-34.5 31t-36 14q-55 0 -59 -86l-92 7q2 80 43 121t106 41
q34 0 62.5 -14t44 -31t34.5 -31t36 -14q55 0 59 86l92 -7q-2 -80 -43 -121t-106 -41z" />
    <glyph glyph-name="notequal" unicode="&#x2260;" horiz-adv-x="532" 
d="M444 575l-68 -121h106v-82h-151l-52 -92h203v-82h-249l-67 -121h-78l67 121h-105v82h151l52 92h-203v82h248l68 121h78z" />
    <glyph glyph-name="equivalence" unicode="&#x2261;" horiz-adv-x="532" 
d="M50 285v82h432v-82h-432zM50 445v82h432v-82h-432zM50 125v82h432v-82h-432z" />
    <glyph glyph-name="lessequal" unicode="&#x2264;" horiz-adv-x="532" 
d="M472 127l-412 185v88l412 185v-92l-312 -137l312 -137v-92zM50 0v82h432v-82h-432z" />
    <glyph glyph-name="greaterequal" unicode="&#x2265;" horiz-adv-x="532" 
d="M472 312l-412 -185v92l312 137l-312 137v92l412 -185v-88zM482 82v-82h-432v82h432z" />
    <glyph glyph-name="house" unicode="&#x2302;" horiz-adv-x="610" 
d="M305 464l-137 -166v-206h274v206zM65 328l240 288l240 -288v-328h-480v328z" />
    <glyph glyph-name="revlogicalnot" unicode="&#x2310;" horiz-adv-x="532" 
d="M487 367v-82h-340v-160h-92v242h432z" />
    <glyph glyph-name="uni2318" unicode="&#x2318;" horiz-adv-x="825" 
d="M472 272v107h-119v-107h119zM219 461h42v43q0 71 -64 71q-24 0 -39.5 -15.5t-15.5 -40.5q0 -27 22 -42.5t55 -15.5zM261 190h-42q-33 0 -55 -15.5t-22 -42.5q0 -25 15.5 -40.5t39.5 -15.5q64 0 64 71v43zM564 461h42q33 0 55 15.5t22 42.5q0 25 -15.5 40.5t-39.5 15.5
q-64 0 -64 -71v-43zM472 190h-119v-45q0 -69 -40.5 -110t-112.5 -41q-68 0 -109 39t-41 99q0 67 45 103.5t118 36.5h48v107h-48q-73 0 -118 36.5t-45 103.5q0 60 41 99t109 39q72 0 112.5 -41t40.5 -110v-45h119v45q0 69 40.5 110t112.5 41q68 0 109 -39t41 -99
q0 -67 -45 -103.5t-118 -36.5h-48v-107h48q73 0 118 -36.5t45 -103.5q0 -60 -41 -99t-109 -39q-72 0 -112.5 41t-40.5 110v45zM606 190h-42v-43q0 -71 64 -71q24 0 39.5 15.5t15.5 40.5q0 27 -22 42.5t-55 15.5z" />
    <glyph glyph-name="lozenge" unicode="&#x25ca;" horiz-adv-x="568" 
d="M528 302l-244 -459l-244 459l244 459zM153 302l131 -247l131 247l-131 247z" />
    <glyph glyph-name="H18533" unicode="&#x25cf;" horiz-adv-x="1000" 
d="M162 326q0 140 99 239t239 99t239 -99t99 -239t-99 -239t-239 -99t-239 99t-99 239z" />
    <glyph glyph-name="fi" horiz-adv-x="572" 
d="M35 408v92h71v4q0 116 40.5 162t155.5 46h26v-92h-35q-51 0 -68 -22t-17 -78v-20h294v-500h-102v408h-192v-408h-102v408h-71zM400 602v110h102v-110h-102z" />
    <glyph glyph-name="fl" horiz-adv-x="602" 
d="M35 408v92h71v13q0 111 43 155t135 44q63 0 111 -23v23h102v-550q0 -70 60 -70h20v-92h-21q-161 0 -161 152v448q-48 20 -100 20t-69.5 -21.5t-17.5 -78.5v-20h120v-92h-120v-408h-102v408h-71z" />
    <glyph glyph-name="commaaccent" horiz-adv-x="380" 
d="M203 -210h-82l38 161h107z" />
    <glyph glyph-name="zero.tnum" horiz-adv-x="532" 
d="M50 229v242q0 113 58 177t158 64t158 -64t58 -177v-242q0 -113 -58 -177t-158 -64t-158 64t-58 177zM152 458v-216q0 -163 114 -163t114 163v216q0 163 -114 163t-114 -163z" />
    <glyph glyph-name="one.tnum" horiz-adv-x="451" 
d="M446 0h-381v92h140v501l-140 -60v97l150 70h92v-608h139v-92z" />
    <glyph glyph-name="two.tnum" horiz-adv-x="522" 
d="M50 489v12q0 90 57.5 150.5t153.5 60.5q94 0 152.5 -60.5t58.5 -150.5q0 -49 -17.5 -86t-53.5 -78l-218 -246h289v-91h-422v81l280 317q40 45 40 102q0 58 -30 89.5t-79 31.5t-79 -31.5t-30 -89.5v-19z" />
    <glyph glyph-name="three.tnum" horiz-adv-x="512" 
d="M256 79q51 0 82.5 34.5t31.5 102.5q0 70 -30.5 104.5t-84.5 34.5q-22 0 -49 -10l-51 56l169 208h-264v91h385v-87l-152 -187q82 -1 130.5 -57t48.5 -154q0 -101 -56.5 -164t-159.5 -63t-159.5 63t-56.5 164v1l102 8v-8q0 -68 31.5 -102.5t82.5 -34.5z" />
    <glyph glyph-name="four.tnum" horiz-adv-x="513" 
d="M488 241v-94h-76v-147h-102v147h-285v94l271 459h116v-459h76zM136 241h174v296z" />
    <glyph glyph-name="five.tnum" horiz-adv-x="522" 
d="M47 216l102 8v-4q0 -67 29 -104t85 -37t85 38t29 109q0 74 -30.5 110t-85.5 36q-53 0 -82 -43h-102v371h364v-91h-262v-189q40 43 104 43q89 0 142.5 -62t53.5 -176q0 -111 -57 -174t-159 -63q-101 0 -158 61.5t-58 166.5z" />
    <glyph glyph-name="six.tnum" horiz-adv-x="507" 
d="M35 210q0 53 22 100l188 390h112l-133 -274q12 5 32 5q97 0 159 -64.5t62 -157.5t-62 -157t-159 -64t-159 64.5t-62 157.5zM137 210q0 -59 33.5 -95t85.5 -36t85.5 36t33.5 95q0 60 -33 95t-86 35t-86 -35.5t-33 -94.5z" />
    <glyph glyph-name="seven.tnum" horiz-adv-x="501" 
d="M40 608v92h421v-81l-229 -619h-108l225 608h-309z" />
    <glyph glyph-name="eight.tnum" horiz-adv-x="522" 
d="M40 210q0 58 28.5 106.5t75.5 70.5q-34 21 -56.5 59t-22.5 80q0 78 55 132t141 54t141 -54.5t55 -132.5q0 -42 -22.5 -80t-57.5 -58q47 -23 76 -71.5t29 -106.5q0 -93 -62 -157t-159 -64t-159 64.5t-62 157.5zM143 209q0 -56 33.5 -93.5t85.5 -37.5t85.5 37.5t33.5 93.5
t-33.5 94t-85.5 38t-85.5 -38t-33.5 -94zM167 526q0 -41 26 -68t68 -27t68 27t26 68t-26 68.5t-68 27.5t-68 -27.5t-26 -68.5z" />
    <glyph glyph-name="nine.tnum" horiz-adv-x="507" 
d="M472 490q0 -53 -22 -100l-188 -390h-112l133 274q-12 -5 -32 -5q-97 0 -159 64.5t-62 157.5t62 157t159 64t159 -64.5t62 -157.5zM370 490q0 59 -33.5 95t-85.5 36t-85.5 -36t-33.5 -95q0 -60 33 -95t86 -35t86 35.5t33 94.5z" />
    <glyph glyph-name="parenleft.case" horiz-adv-x="317" 
d="M277 -10l-30 -93q-77 26 -122 96t-45 166v383q0 96 45 166t122 96l30 -93q-43 -19 -69 -67.5t-26 -119.5v-347q0 -71 26 -119.5t69 -67.5z" />
    <glyph glyph-name="parenright.case" horiz-adv-x="317" 
d="M70 -103l-30 93q43 19 69 67.5t26 119.5v347q0 71 -26 119.5t-69 67.5l30 93q77 -26 122 -96t45 -166v-383q0 -96 -45 -166t-122 -96z" />
    <glyph glyph-name="hyphen.case" horiz-adv-x="412" 
d="M50 304v92h312v-92h-312z" />
    <glyph glyph-name="at.case" horiz-adv-x="744" 
d="M271 303v49q0 89 47 148t134 59q88 0 132 -64v11q0 93 -60.5 150t-151.5 57t-151.5 -57t-60.5 -150v-313q0 -93 60.5 -150t151.5 -57q54 0 98 26l44 -76q-65 -37 -142 -37q-123 0 -212.5 79t-89.5 192v359q0 113 89.5 192t212.5 79t212.5 -79t89.5 -192v-191
q0 -116 -52.5 -179t-149.5 -63q-96 0 -148.5 59t-52.5 148zM584 328v76q-36 63 -102 63q-109 0 -109 -135v-9q0 -135 113 -135q44 0 71 37t27 103z" />
    <glyph glyph-name="bracketleft.case" horiz-adv-x="330" 
d="M80 -88v876h210v-91h-108v-694h108v-91h-210z" />
    <glyph glyph-name="bracketright.case" horiz-adv-x="330" 
d="M250 788v-876h-210v91h108v694h-108v91h210z" />
    <glyph glyph-name="braceleft.case" horiz-adv-x="342" 
d="M120 64v170q0 70 -60 70h-20v92h20q60 0 60 70v170q0 152 161 152h21v-91h-20q-60 0 -60 -70v-171q0 -36 -16.5 -65.5t-46.5 -40.5q30 -11 46.5 -40.5t16.5 -65.5v-171q0 -70 60 -70h20v-91h-21q-161 0 -161 152z" />
    <glyph glyph-name="braceright.case" horiz-adv-x="342" 
d="M222 234v-170q0 -152 -161 -152h-21v91h20q60 0 60 70v171q0 36 16.5 65.5t46.5 40.5q-30 11 -46.5 40.5t-16.5 65.5v171q0 70 -60 70h-20v91h21q161 0 161 -152v-170q0 -70 60 -70h20v-92h-20q-60 0 -60 -70z" />
    <glyph glyph-name="exclamdown.case" horiz-adv-x="302" 
d="M100 100l20 388h62l20 -388v-100h-102v100zM100 590v110h102v-110h-102z" />
    <glyph glyph-name="guillemotleft.case" horiz-adv-x="515" 
d="M258 434l-134 -84l134 -84v-88l-218 143v58l218 143v-88zM475 434l-134 -84l134 -84v-88l-218 143v58l218 143v-88z" />
    <glyph glyph-name="periodcentered.case" horiz-adv-x="266" 
d="M192 408v-115h-118v115h118z" />
    <glyph glyph-name="guillemotright.case" horiz-adv-x="515" 
d="M391 350l-134 84v88l218 -143v-58l-218 -143v88zM174 350l-134 84v88l218 -143v-58l-218 -143v88z" />
    <glyph glyph-name="questiondown.case" horiz-adv-x="522" 
d="M370 190l102 -9q-8 -83 -63.5 -138t-147.5 -55q-91 0 -146 55.5t-55 143.5q0 58 21 97.5t67 80.5q36 32 52 60.5t16 69.5v24h102v-32q0 -54 -19 -91t-72 -83q-37 -32 -51 -59t-14 -64q0 -53 26.5 -82t73.5 -29q46 0 74 28.5t34 82.5zM318 700v-110h-102v110h102z" />
    <glyph glyph-name="endash.case" horiz-adv-x="500" 
d="M500 304h-500v92h500v-92z" />
    <glyph glyph-name="emdash.case" horiz-adv-x="1000" 
d="M1000 304h-1000v92h1000v-92z" />
    <glyph glyph-name="bullet.case" horiz-adv-x="362" 
d="M50 350q0 54 38.5 92.5t92.5 38.5t92.5 -38.5t38.5 -92.5t-38.5 -92.5t-92.5 -38.5t-92.5 38.5t-38.5 92.5z" />
    <glyph glyph-name="guilsinglleft.case" horiz-adv-x="298" 
d="M258 434l-134 -84l134 -84v-88l-218 143v58l218 143v-88z" />
    <glyph glyph-name="guilsinglright.case" horiz-adv-x="298" 
d="M174 350l-134 84v88l218 -143v-58l-218 -143v88z" />
    <glyph glyph-name="zero.numerator" 
d="M242 396v145q0 89 -59 89t-59 -89v-145q0 -89 59 -89t59 89zM334 551v-165q0 -73 -40.5 -115t-110.5 -42t-110.5 42t-40.5 115v165q0 73 40.5 115t110.5 42t110.5 -42t40.5 -115z" />
    <glyph glyph-name="one.numerator" 
d="M334 237h-268v78h88v290l-88 -37v83l105 49h75v-385h88v-78z" />
    <glyph glyph-name="two.numerator" 
d="M39 549v16q0 62 39.5 102.5t108.5 40.5q65 0 106 -40t41 -103q0 -58 -49 -112l-124 -138h173v-78h-295v65l180 204q23 26 23 58q0 31 -15 48.5t-40 17.5q-26 0 -41 -17t-15 -49v-22z" />
    <glyph glyph-name="three.numerator" 
d="M149 449l-43 48l98 125h-157v78h271v-68l-90 -112q50 -7 79 -46t29 -100q0 -62 -42.5 -103.5t-107.5 -41.5q-67 0 -109 41.5t-42 103.5v13l92 7v-19q0 -33 16 -50.5t43 -17.5q25 0 41.5 17.5t16.5 50.5q0 83 -59 83q-15 0 -36 -9z" />
    <glyph glyph-name="four.numerator" 
d="M120 408h85v143zM343 408v-78h-48v-93h-90v93h-183v71l177 299h96v-292h48z" />
    <glyph glyph-name="five.numerator" 
d="M147 622v-86q22 14 52 14q61 0 100 -42.5t39 -118.5q0 -74 -40.5 -117t-109.5 -43q-70 0 -110.5 42.5t-40.5 110.5l92 7v-4q0 -78 59 -78q26 0 42 20.5t16 62.5t-15.5 63t-41.5 21q-34 0 -52 -28h-81v254h258v-78h-167z" />
    <glyph glyph-name="six.numerator" 
d="M244 380q0 33 -16.5 53t-44.5 20t-44.5 -20t-16.5 -53t16.5 -53t44.5 -20t44.5 20t16.5 53zM46 451l120 249h100l-84 -171q68 0 111 -43.5t43 -106.5t-42.5 -106.5t-109.5 -43.5q-68 0 -111 43.5t-43 107.5q0 38 16 71z" />
    <glyph glyph-name="seven.numerator" 
d="M36 622v78h295v-61l-149 -402h-98l148 385h-196z" />
    <glyph glyph-name="eight.numerator" 
d="M183 229q-69 0 -111.5 42t-42.5 109q0 78 59 114q-44 31 -44 89q0 55 38 90t101 35t101 -35t38 -90q0 -58 -44 -89q59 -36 59 -114q0 -67 -42.5 -109t-111.5 -42zM183 453q-27 0 -44.5 -20t-17.5 -54q0 -33 17.5 -53.5t44.5 -20.5t44.5 20.5t17.5 53.5q0 34 -17.5 54
t-44.5 20zM183 529q21 0 34 14t13 37t-13 37.5t-34 14.5t-34 -14.5t-13 -37.5t13 -37t34 -14z" />
    <glyph glyph-name="nine.numerator" 
d="M122 557q0 -33 16.5 -53t44.5 -20t44.5 20t16.5 53t-16.5 53t-44.5 20t-44.5 -20t-16.5 -53zM320 486l-120 -249h-100l84 171q-68 0 -111 43.5t-43 106.5t42.5 106.5t109.5 43.5q68 0 111 -43.5t43 -107.5q0 -38 -16 -71z" />
    <glyph glyph-name="zero.denominator" 
d="M242 159v145q0 89 -59 89t-59 -89v-145q0 -89 59 -89t59 89zM334 314v-165q0 -73 -40.5 -115t-110.5 -42t-110.5 42t-40.5 115v165q0 73 40.5 115t110.5 42t110.5 -42t40.5 -115z" />
    <glyph glyph-name="one.denominator" 
d="M334 0h-268v78h88v290l-88 -37v83l105 49h75v-385h88v-78z" />
    <glyph glyph-name="two.denominator" 
d="M39 312v16q0 62 39.5 102.5t108.5 40.5q65 0 106 -40t41 -103q0 -58 -49 -112l-124 -138h173v-78h-295v65l180 204q23 26 23 58q0 31 -15 48.5t-40 17.5q-26 0 -41 -17t-15 -49v-22z" />
    <glyph glyph-name="three.denominator" 
d="M149 212l-43 48l98 125h-157v78h271v-68l-90 -112q50 -7 79 -46t29 -100q0 -62 -42.5 -103.5t-107.5 -41.5q-67 0 -109 41.5t-42 103.5v13l92 7v-19q0 -33 16 -50.5t43 -17.5q25 0 41.5 17.5t16.5 50.5q0 83 -59 83q-15 0 -36 -9z" />
    <glyph glyph-name="four.denominator" 
d="M120 171h85v143zM343 171v-78h-48v-93h-90v93h-183v71l177 299h96v-292h48z" />
    <glyph glyph-name="five.denominator" 
d="M147 385v-86q22 14 52 14q61 0 100 -42.5t39 -118.5q0 -74 -40.5 -117t-109.5 -43q-70 0 -110.5 42.5t-40.5 110.5l92 7v-4q0 -78 59 -78q26 0 42 20.5t16 62.5t-15.5 63t-41.5 21q-34 0 -52 -28h-81v254h258v-78h-167z" />
    <glyph glyph-name="six.denominator" 
d="M244 143q0 33 -16.5 53t-44.5 20t-44.5 -20t-16.5 -53t16.5 -53t44.5 -20t44.5 20t16.5 53zM46 214l120 249h100l-84 -171q68 0 111 -43.5t43 -106.5t-42.5 -106.5t-109.5 -43.5q-68 0 -111 43.5t-43 107.5q0 38 16 71z" />
    <glyph glyph-name="seven.denominator" 
d="M36 385v78h295v-61l-149 -402h-98l148 385h-196z" />
    <glyph glyph-name="eight.denominator" 
d="M183 -8q-69 0 -111.5 42t-42.5 109q0 78 59 114q-44 31 -44 89q0 55 38 90t101 35t101 -35t38 -90q0 -58 -44 -89q59 -36 59 -114q0 -67 -42.5 -109t-111.5 -42zM183 216q-27 0 -44.5 -20t-17.5 -54q0 -33 17.5 -53.5t44.5 -20.5t44.5 20.5t17.5 53.5q0 34 -17.5 54
t-44.5 20zM183 292q21 0 34 14t13 37t-13 37.5t-34 14.5t-34 -14.5t-13 -37.5t13 -37t34 -14z" />
    <glyph glyph-name="nine.denominator" 
d="M122 320q0 -33 16.5 -53t44.5 -20t44.5 20t16.5 53t-16.5 53t-44.5 20t-44.5 -20t-16.5 -53zM320 249l-120 -249h-100l84 171q-68 0 -111 43.5t-43 106.5t42.5 106.5t109.5 43.5q68 0 111 -43.5t43 -107.5q0 -38 -16 -71z" />
    </font>
</defs>
</svg>
